<?xml version="1.0" standalone="no"?>
<!DOCTYPE svg PUBLIC "-//W3C//DTD SVG 1.1//EN" "http://www.w3.org/Graphics/SVG/1.1/DTD/svg11.dtd" >
<svg xmlns="http://www.w3.org/2000/svg" xmlns:xlink="http://www.w3.org/1999/xlink" version="1.1">
<metadata>
Created by FontForge 20170731 at Thu Feb  4 01:39:05 2021
 By Aleksey,,,
Better Grade (c) (Heinzel Std). 2021. All Rights Reserved
</metadata>
<defs>
<font id="BetterGrade" horiz-adv-x="1014" >
  <font-face 
    font-family="Better Grade"
    font-weight="400"
    font-stretch="normal"
    units-per-em="2048"
    panose-1="2 0 5 0 0 0 0 0 0 0"
    ascent="1638"
    descent="-410"
    x-height="729.5"
    cap-height="1428"
    bbox="-612.831 -418 2048 1716"
    underline-thickness="150"
    underline-position="-442"
    unicode-range="U+001D-F130"
  />
<missing-glyph horiz-adv-x="1024" 
d="M100 0v1434h824v-1434h-824zM150 50h724v1334h-724v-1334zM325 1148q31 28 58 43q53 30 112 30q92 0 148 -47.5t56 -127.5q0 -49 -23 -98.5t-87 -129.5q-63 -80 -99 -132t-36 -99q0 -38 24 -133h-32q-35 97 -35 148q0 76 81.5 218t81.5 217q0 57 -33 90t-91 33
q-38 0 -69 -17q-26 -15 -56 -40v45zM389 334l57 58q11 10 20 10q10 0 22 -11l56 -60q9 -11 9 -20q0 -11 -10 -22l-56 -62q-14 -14 -21 -14q-11 0 -20 10l-61 71q-7 9 -7 18q0 10 11 22z" />
    <glyph glyph-name="tt" unicode="tt" horiz-adv-x="508" 
d="M475 911q-20 -58 -43 -121q-95 -267 -168 -518.5t-72 -378.5q0 -8 -5.5 -14t-13.5 -7h-1q-8 0 -13.5 5.5t-6.5 13.5q-2 101 45.5 286.5t120.5 401.5q58 174 115 333h-14q-63 -113 -137 -240q-81 -141 -142 -239.5t-104 -162t-71.5 -100t-46 -53t-27.5 -21.5t-15 -5
q-15 -3 -27 6q-10 7 -14.5 27t2 63.5t28.5 123.5q40 138 125 363q51 135 97 247l-204 5q-9 0 -14.5 6t-5.5 14q1 9 6.5 14.5t13.5 5.5h1l219 -6q13 32 26 63q62 149 66 158q4 8 11.5 11t14.5 0q8 -4 11 -11.5t0 -15.5q-4 -9 -64 -154q-11 -25 -22 -52l250 -6q35 62 66 119
q90 164 95 175q4 7 11 9.5t15 -1.5q7 -3 10 -10t0 -15q-45 -118 -103 -280l394 -10q8 0 13.5 -6t5.5 -14q0 -9 -6 -14.5t-14 -5.5zM130 920q-45 -112 -98 -249q-84 -220 -124 -357q-27 -94 -32 -134t-2 -47q9 3 40.5 39.5t98.5 134.5q94 142 235 385q68 118 126 221z
M447 951q7 18 13 35q-9 -17 -19 -34z" />
    <glyph glyph-name="st" unicode="st" horiz-adv-x="452" 
d="M-81 287q-20 0 -32 14q-27 35 27 117q38 58 89 134q-9 75 -19 128q-6 52 26.5 79.5t62.5 34.5q9 2 15.5 -2t9.5 -12q2 -8 -2.5 -15t-12.5 -10v0q-1 0 -11.5 -3.5t-22.5 -11.5t-20 -21t-5 -32q5 -30 13 -84l74 111q2 2 3 5q117 174 218 326.5t125 195.5q5 7 12.5 9.5
t14.5 -1.5q8 -4 10 -12t-1 -15q-25 -43 -124.5 -193.5t-220.5 -331.5l-6 -8q-51 -77 -98 -147l4 -42q2 -89 -33.5 -142t-71.5 -66q-13 -5 -24 -5v0zM-82 327q3 0 10.5 2.5t18.5 10.5q24 19 43 56.5t18 91.5q-33 -51 -60 -92q-20 -31 -25.5 -48t-4.5 -21v0zM98 -97
q-8 0 -13.5 5.5t-6.5 13.5q-2 125 61 360t152 495t165 461q3 8 10.5 11.5t15.5 0.5t11 -10.5t1 -15.5q-63 -164 -152 -422t-157 -504t-67 -374q0 -9 -5.5 -15t-13.5 -6h-1v0zM825 872h-1l-807 23q-8 1 -13.5 6.5t-5.5 14.5q0 8 6 13.5t14 5.5v0l807 -23q9 0 14.5 -6t5.5 -14
q-1 -8 -6.5 -14t-13.5 -6v0z" />
    <glyph glyph-name="ss" unicode="ss" horiz-adv-x="508" 
d="M-90 241q-12 0 -21 4q-18 7 -22 29q-7 28 22 81q28 53 105 124q8 8 17 15q-2 50 -8 93t-11 64q-6 51 23 83q29 31 57 41q8 3 15 0q8 -3 11 -11t0 -16q-3 -7 -11 -10q-2 -1 -11 -6q-10 -5 -21 -15q-12 -10 -19 -24q-7 -15 -4 -34q10 -49 17 -132q84 67 147 110t67 45
q7 4 15 2q8 -1 13 -9q4 -7 2 -15t-9 -12q-5 -2 -75 -50t-157 -121q2 -75 -18 -130q-24 -55 -59 -80q-35 -26 -65 -26v0v0zM-94 282q14 -3 42 14q27 18 49 66q12 33 14 78q-66 -64 -88 -105q-21 -42 -17 -53v0v0zM196 274q-10 0 -18 3q-17 7 -21 27q-6 25 18 72q24 48 91 112
q7 7 14 13q-2 44 -7 82q-6 37 -9 56q-6 46 20 75q25 28 49 37q8 3 15 0q8 -3 11 -11t0 -15t-10 -11q-2 0 -10 -4q-7 -5 -17 -13q-9 -9 -15 -21q-6 -13 -4 -30q9 -46 15 -111q68 58 120 94q51 36 57 39q7 5 15 3q7 -2 12 -9t3 -15q-2 -7 -9 -12q-4 -2 -63 -44t-133 -107
q2 -66 -15 -115q-21 -50 -51 -73q-31 -23 -58 -22v0v0zM196 313h0.5h0.5q10 0 32 16q22 15 39 55q9 26 11 61q-52 -54 -69 -88q-16 -34 -14 -44v0v0z" />
    <glyph glyph-name="ll" unicode="ll" horiz-adv-x="508" 
d="M-17 654l9 28q21 61 47 125q77 192 126.5 292t78.5 136.5t47 41.5q15 5 24 1t12 -8q22 -19 -8 -100q-21 -60 -66 -152q-43 -86 -113 -191q-68 -103 -110 -161q-82 -217 -122 -352q-27 -94 -32 -134t-2 -47q9 3 40.5 39.5t98.5 134.5q94 142 235 385q124 215 214 379.5
t95 175.5q4 7 11 9.5t15 -1.5q7 -3 10 -10t0 -15q-66 -174 -161 -440.5t-168 -518t-72 -378.5q0 -8 -5.5 -14t-13.5 -7h-1q-8 0 -13.5 5.5t-6.5 13.5q-2 101 45.5 286.5t120 401t142.5 407.5q-79 -144 -178 -314q-81 -141 -142 -239.5t-104 -162t-71.5 -100t-46 -53
t-27.5 -21.5t-15 -5q-15 -3 -27 6q-10 7 -14.5 27t2 63.5t28.5 123.5q38 132 118 343zM153 979h1q-28 -68 -59 -146q76 111 123 202q77 166 78 199q-10 -8 -27.5 -32.5t-45.5 -76.5q-31 -59 -70 -146z" />
    <glyph glyph-name=".notdef" horiz-adv-x="1024" 
d="M100 0v1434h824v-1434h-824zM150 50h724v1334h-724v-1334zM325 1148q31 28 58 43q53 30 112 30q92 0 148 -47.5t56 -127.5q0 -49 -23 -98.5t-87 -129.5q-63 -80 -99 -132t-36 -99q0 -38 24 -133h-32q-35 97 -35 148q0 76 81.5 218t81.5 217q0 57 -33 90t-91 33
q-38 0 -69 -17q-26 -15 -56 -40v45zM389 334l57 58q11 10 20 10q10 0 22 -11l56 -60q9 -11 9 -20q0 -11 -10 -22l-56 -62q-14 -14 -21 -14q-11 0 -20 10l-61 71q-7 9 -7 18q0 10 11 22z" />
    <glyph glyph-name=".null" horiz-adv-x="0" 
 />
    <glyph glyph-name=".null" horiz-adv-x="0" 
 />
    <glyph glyph-name="nonmarkingreturn" horiz-adv-x="508" 
 />
    <glyph glyph-name="space" unicode=" " horiz-adv-x="293" 
 />
    <glyph glyph-name="space" unicode="&#xa0;" horiz-adv-x="293" 
 />
    <glyph glyph-name="exclam" unicode="!" horiz-adv-x="539" 
d="M61 199q-4 0 -8 1q-8 4 -11 11.5t0 15.5l387 869q4 7 11 10t15 0q8 -4 11 -11.5t-1 -15.5l-386 -869q-7 -11 -18 -11v0zM22 103q-4 0 -8 1q-8 4 -11 11t0 15l13 33q3 7 10.5 10.5t15.5 0.5q8 -4 11 -11t0 -15l-13 -32q-7 -13 -18 -13v0z" />
    <glyph glyph-name="quotedbl" unicode="&#x22;" horiz-adv-x="221" 
d="M21 1072q-10 0 -17 10q-4 8 -1.5 15.5t9.5 11.5q10 6 14 19t4.5 26t-1.5 18q-3 7 -1.5 14.5t8.5 12.5q7 4 15 2.5t13 -8.5q6 -11 6.5 -31t-3.5 -37q-10 -37 -36 -51q-5 -2 -10 -2v0zM101 1072q-10 0 -17 10q-4 8 -1.5 15.5t9.5 11.5q10 6 14 19t4.5 26t-1.5 18
q-3 7 -1.5 14.5t8.5 12.5q7 4 15 2.5t13 -8.5q6 -11 6.5 -31t-3.5 -37q-10 -37 -36 -51q-5 -2 -10 -2v0z" />
    <glyph glyph-name="numbersign" unicode="#" horiz-adv-x="762" 
d="M177 510q42 91 90 187l-158 4q-9 0 -14.5 6t-5.5 15q1 8 6.5 13.5t14.5 5.5l177 -5q48 94 102 193q4 7 12 9t15 -2q8 -4 10 -11.5t-2 -15.5q-49 -89 -93 -174l160 -5l73 165q3 8 10.5 11t15.5 -1q8 -3 11 -10.5t-1 -15.5l-67 -150l139 -4q9 0 14.5 -6t5.5 -15
q-1 -8 -6.5 -13.5t-13.5 -5.5l-156 4l-82 -185l120 -3q8 0 13.5 -6t5.5 -14t-6 -14t-14 -6l-137 3l-84 -189q-7 -12 -18 -12q-4 0 -8 2q-8 4 -11 11t1 15l77 174l-170 5q-42 -95 -78 -185q-7 -12 -19 -12q-4 0 -7 1q-8 4 -11 11.5t0 15.5q33 82 71 170l-139 3q-9 0 -14.5 6
t-5.5 14q0 9 6 14.5t14 5.5zM311 695q-48 -95 -90 -186l170 -4l82 186z" />
    <glyph glyph-name="dollar" unicode="$" horiz-adv-x="556" 
d="M280 765l103 340q-10 3 -22 3q-54 -8 -99 -65t-42 -129q5 -40 28 -87q15 -31 32 -62zM159 226q55 -11 108 34q43 38 64 112t12 158q-5 39 -27 85q-12 24 -25 48zM307 717q25 -44 46 -88q24 -50 30 -95q10 -94 -14.5 -177t-75.5 -128q-55 -45 -114 -45q-16 0 -32 3
l-24 -79q-6 -14 -19 -14q-3 0 -5 1q-9 2 -12.5 9t-1.5 15l25 82q-78 39 -108 141q-2 8 2 15t12 9q9 2 15.5 -2t9.5 -12q23 -80 80 -112l143 471q-31 51 -54 102q-25 51 -30 98q-3 91 52.5 159t125.5 77q19 2 37 -2l19 64q3 8 10 12t15 1q8 -2 12 -9t1 -16l-21 -71l11 -11
q35 -39 43 -118q1 -8 -4 -14t-14 -7q-8 -1 -14.5 4t-7.5 13q-2 38 -20 77q-3 7 -8 12z" />
    <glyph glyph-name="percent" unicode="%" horiz-adv-x="742" 
d="M21 137q-5 0 -11 3q-7 5 -8.5 12.5t2.5 15.5l630 984q4 7 12 8.5t15 -2.5q7 -5 9 -13t-3 -15l-629 -984q-7 -9 -17 -9v0zM226 892q-37 0 -63.5 28.5t-26.5 68.5t26.5 68t63.5 28t63.5 -28t26.5 -68t-26.5 -68.5t-63.5 -28.5v0zM226 1045q-21 0 -35.5 -16.5t-14.5 -39.5
q0 -24 14.5 -40.5t35.5 -16.5t35.5 16.5t14.5 40.5q0 23 -14.5 39.5t-35.5 16.5v0zM372 164q-37 0 -63.5 28t-26.5 68t26.5 68.5t63.5 28.5t63.5 -28.5t26.5 -68.5t-26.5 -68t-63.5 -28v0zM372 317q-21 0 -35.5 -16.5t-14.5 -40.5q0 -23 14.5 -39.5t35.5 -16.5t35.5 16.5
t14.5 39.5q0 24 -14.5 40.5t-35.5 16.5v0z" />
    <glyph glyph-name="ampersand" unicode="&#x26;" horiz-adv-x="670" 
d="M412 63q-5 0 -10 2q-75 48 -114 147q-128 -66 -230 -73.5t-148 46.5q-70 94 82 266q117 126 223 217q1 182 24 282q22 86 55.5 124.5t64.5 47.5q33 11 61.5 5.5t45.5 -19.5q32 -27 30 -96.5t-50 -159.5q-27 -45 -76 -94t-115 -108q1 -206 54 -380q45 28 71 59.5
t38.5 59.5t15.5 46t3 19q1 9 6.5 14.5t14.5 4.5q8 0 13.5 -6t5.5 -15q1 -4 -8 -40.5t-41.5 -86.5t-104.5 -93v-1v0q37 -92 99 -131q8 -4 10 -12t-2 -15q-7 -10 -18 -10v0zM216 615q-94 -82 -195 -191q-128 -146 -80 -214q30 -37 118 -31t214 70q-37 117 -48 232
q-7 68 -9 134v0zM399 1089q-13 0 -27 -5q-66 -24 -94 -143q-20 -90 -23 -237q111 95 156 168q42 79 44.5 135t-14.5 70q-13 12 -42 12v0z" />
    <glyph glyph-name="quotesingle" unicode="'" horiz-adv-x="141" 
d="M21 1072q-10 0 -17 10q-4 8 -1.5 15.5t9.5 11.5q10 6 14 19t4.5 26t-1.5 18q-3 7 -1.5 14.5t8.5 12.5q7 4 15 2.5t13 -8.5q6 -11 6.5 -31t-3.5 -37q-10 -37 -36 -51q-5 -2 -10 -2v0z" />
    <glyph glyph-name="parenleft" unicode="(" horiz-adv-x="478" 
d="M61 151q-10 0 -16 8q-45 67 -42.5 193.5t31.5 252.5q45 203 128 366q97 185 215 250q7 4 15 1.5t12 -9.5q4 -8 1.5 -15.5t-9.5 -11.5q-82 -47 -146 -144t-109 -215.5t-68 -229.5q-31 -145 -30 -256.5t34 -157.5q4 -7 3 -14.5t-7 -13.5q-6 -4 -12 -4v0z" />
    <glyph glyph-name="parenright" unicode=")" horiz-adv-x="501" 
d="M21 118q-10 0 -17 10q-4 8 -2 15.5t9 12.5q104 68 192 252t131 396.5t13 367.5q-2 9 2.5 15.5t12.5 8.5t15 -2.5t9 -12.5q45 -234 -67 -591q-121 -360 -287 -469q-5 -3 -11 -3v0z" />
    <glyph glyph-name="asterisk" unicode="*" horiz-adv-x="657" 
d="M280 1294q-4 71 -37 130q-37 66 -37 84q0 32 23.5 51.5t62.5 19.5q37 0 61.5 -18t24.5 -47q0 -21 -36 -89q-33 -61 -37 -130q66 25 113 75q51 55 69 61q11 3 21 3q18 0 35 -10q26 -17 38 -53q6 -19 6 -36q0 -15 -4 -28q-10 -30 -38 -38q-6 -2 -19 -2q-25 0 -76 9
q-28 5 -55 5q-41 0 -81 -11q44 -55 105 -83q68 -32 79 -47q13 -18 13 -38q0 -9 -2 -17q-8 -30 -39 -53q-29 -22 -59 -22q-1 0 -1 1q-31 0 -48 23q-12 17 -22 94q-10 67 -47 125q-38 -58 -46 -124q-9 -75 -20 -90q-19 -25 -49 -27h-5q-28 0 -57 21q-30 21 -39 51q-4 10 -4 20
q0 17 11 32q13 17 83 51q61 29 105 82q-41 11 -80 11q-27 0 -53 -5q-54 -11 -78 -11q-9 0 -14 2q-30 9 -41 38q-6 13 -6 29q0 17 6 36q11 35 36 53q17 12 34 12q9 0 18 -3q20 -6 74 -62q47 -49 112 -75z" />
    <glyph glyph-name="plus" unicode="+" horiz-adv-x="522" 
d="M151 347q-3 0 -5 1q-9 3 -12.5 10t-1.5 15l124 431q3 8 10 12t15 2q8 -3 12 -10t2 -15l-125 -431q-6 -15 -19 -15v0zM432 567h-1l-411 10q-9 1 -14.5 6.5t-5.5 14.5q0 8 6 13.5t14 5.5l412 -10q9 0 14.5 -5.5t5.5 -14.5q0 -8 -6 -14t-14 -6v0z" />
    <glyph glyph-name="comma" unicode="," horiz-adv-x="124" 
d="M21 399q-6 0 -12 3q-6 6 -7.5 13.5t3.5 14.5q5 9 7 21t2 18q0 8 6 14t14 6t14 -6t6 -14q0 -2 -0.5 -12.5t-4.5 -24t-12 -25.5q-7 -8 -16 -8v0z" />
    <glyph glyph-name="hyphen" unicode="-" horiz-adv-x="436" 
d="M346 558v0v0l-326 6q-9 0 -14.5 6t-5.5 14q0 9 6 14.5t14 5.5l326 -6q9 -1 14.5 -6.5t5.5 -14.5q0 -8 -6 -13.5t-14 -5.5v0z" />
    <glyph glyph-name="hyphen" unicode="&#xad;" horiz-adv-x="436" 
d="M346 558v0v0l-326 6q-9 0 -14.5 6t-5.5 14q0 9 6 14.5t14 5.5l326 -6q9 -1 14.5 -6.5t5.5 -14.5q0 -8 -6 -13.5t-14 -5.5v0z" />
    <glyph glyph-name="period" unicode="." horiz-adv-x="142" 
d="M98 462q0 -12 -8.5 -20.5t-20.5 -8.5t-20.5 8.5t-8.5 20.5t8.5 20.5t20.5 8.5t20.5 -8.5t8.5 -20.5v0z" />
    <glyph glyph-name="slash" unicode="/" horiz-adv-x="706" 
d="M-1 50q-5 -1 -11 2q-8 4 -10.5 11.5t0.5 15.5l546 1139q4 8 11.5 10.5t15.5 -1.5q7 -4 10 -11.5t-1 -14.5l-545 -1140q-6 -10 -16 -11v0z" />
    <glyph glyph-name="zero" unicode="0" horiz-adv-x="701" 
d="M155 134q-45 0 -79 28q-42 40 -59 109.5t-16.5 145t8.5 131.5q19 127 75.5 284.5t142.5 279.5q58 75 103 103.5t73.5 30t37.5 -3.5q89 -17 134 -88q39 -65 41 -157t-17 -190t-44 -182q-9 -37 -37.5 -112.5t-78.5 -160.5q-104 -170 -234 -210q-27 -8 -50 -8v0zM416 1206
q-12 0 -34 -7.5t-53 -33t-70 -77.5q-89 -127 -142.5 -283.5t-68.5 -262.5q-13 -87 -4.5 -193t58.5 -157q35 -30 91 -13q102 36 170.5 131.5t106.5 191.5t47 134q106 370 24 497q-35 57 -109 70q-1 1 -2 1t-2 1q-2 1 -12 1v0z" />
    <glyph glyph-name="one" unicode="1" horiz-adv-x="429" 
d="M21 145h-5q-8 3 -12 10t-2 15l317 1064q2 8 9 12t15 2q8 -3 12 -10t2 -15l-316 -1064q-7 -14 -20 -14v0z" />
    <glyph glyph-name="two" unicode="2" horiz-adv-x="765" 
d="M470 142h-447q-13 0 -19 13q-4 12 5 22q6 2 136 133t332 373q215 267 166 432q-26 73 -101 91q-75 17 -150 -90q-30 -44 -46.5 -79.5t-16.5 -38.5q-3 -8 -10.5 -11t-15.5 0t-11 10t0 15q1 7 20 46.5t52.5 87.5t81 79t105.5 20q96 -24 130 -117q14 -34 11.5 -97t-43 -156
t-141.5 -218q-152 -183 -266 -303.5t-169 -171.5h397q8 0 14 -6t6 -14t-6 -14t-14 -6v0z" />
    <glyph glyph-name="three" unicode="3" horiz-adv-x="689" 
d="M214 135q-37 0 -75 10q-91 26 -136 124q-3 8 0 15.5t10 11.5q8 3 15.5 0t11.5 -10q37 -81 110 -102q95 -26 179 22q96 58 127 174q31 138 -31 239q-49 75 -142 92q-14 3 -16 17q-1 14 11 21q3 1 40.5 22.5t85.5 58.5t80 84q88 143 42 242q-29 52 -84 56q-85 0 -154 -108
q-5 -7 -13 -9t-15 2q-7 5 -9 12.5t3 15.5q82 128 189 126q79 -4 118 -77q58 -119 -44 -281q-35 -53 -86 -93t-92 -63q75 -29 119 -96q71 -116 37 -270q-35 -133 -146 -200q-63 -36 -135 -36v0z" />
    <glyph glyph-name="four" unicode="4" horiz-adv-x="628" 
d="M373 546q-35 -2 -79 -3q-62 -2 -122 -2q-95 0 -147 8q-16 3 -22 19q-3 7 -0.5 21t17.5 43t50 80q58 84 163 216q93 115 166 201t78 91q6 7 14 7.5t14 -5.5q6 -5 7 -13t-5 -15q-4 -5 -74.5 -87.5t-161.5 -195.5q-92 -115 -140.5 -182.5t-67 -100t-20.5 -42.5
q35 -4 99.5 -4.5t133.5 1.5q63 1 109 3l132 454q3 9 10 12.5t15 1.5q8 -3 12 -10t2 -15l-128 -442q13 1 15 1q9 0 15 -5t6 -14q0 -8 -5 -14t-14 -7q-4 0 -29 -1l-112 -384q-7 -14 -20 -14q-2 0 -5 1q-8 2 -12 9t-2 16z" />
    <glyph glyph-name="five" unicode="5" horiz-adv-x="717" 
d="M169 187q-87 0 -163 70q-6 6 -6 14t6 14t14 6t14 -5q68 -61 130.5 -59.5t107.5 29.5q102 58 169 186q64 129 46 233q-25 116 -160 132q-34 2 -67.5 -11t-58.5 -27q-22 -11 -35 -15q-15 -4 -25 7q-8 7 -6.5 27t18.5 69q18 55 55 144q33 79 59.5 138.5t28.5 63.5
q6 11 18 11v0l313 -3q9 0 14.5 -5.5t5.5 -14.5q0 -8 -5.5 -14t-14.5 -6l-300 3q-52 -115 -94 -218.5t-56 -153.5q3 2 5 3q28 16 67 30.5t83 11.5q162 -21 194 -164q21 -118 -49 -259q-73 -139 -185 -203q-63 -34 -123 -34v0z" />
    <glyph glyph-name="six" unicode="6" horiz-adv-x="639" 
d="M217 132q-73 0 -130 40q-73 53 -85 136q-1 1 -1 3q-1 10 -1 20q0 248 161 508q153 240 377 381q7 4 14.5 2.5t12.5 -8.5q4 -8 2.5 -15.5t-8.5 -12.5q-123 -76 -235 -198.5t-188 -274.5t-93 -317q72 114 187 189q125 73 217 17q93 -66 83 -203q-24 -175 -205 -246
q-56 -21 -108 -21v0zM42 310q11 -64 68 -106q84 -56 201 -14q158 63 179 214q9 112 -64 164q-71 44 -175 -17q-71 -44 -128 -112.5t-81 -128.5v0z" />
    <glyph glyph-name="seven" unicode="7" horiz-adv-x="621" 
d="M286 672q-1 -2 -2 -3q-95 -188 -167 -329.5t-78 -151.5q-7 -11 -18 -11q-4 0 -9 2q-7 4 -9.5 11.5t1.5 15.5q10 19 77 151t156 307l4 8h-41q-8 0 -14 6t-6 14t6 14t14 6h61q75 147 140 274q75 147 101 198q-12 3 -61 5t-155 -4q-80 -4 -139 -9t-63 -6q-8 0 -14.5 5
t-7.5 13q0 9 5 15t13 7q4 1 67 6t147 10q95 5 153 3q50 -2 70.5 -8t25.5 -16q8 -13 1 -27q-13 -25 -89 -173q-67 -132 -149 -293h38q8 0 14 -6t6 -14t-6 -14t-14 -6h-58z" />
    <glyph glyph-name="eight" unicode="8" horiz-adv-x="785" 
d="M207 137q-55 0 -105 31q-62 39 -82 134t46 245q42 86 104.5 156.5t91.5 95.5q-30 59 -29 131q9 135 66.5 211.5t127.5 99.5q118 40 195 -38q93 -108 -2 -321q-46 -94 -101 -179t-78 -117q5 -12 10 -23q42 -117 13.5 -204t-81.5 -140q-78 -81 -176 -82v0zM282 762
q-32 -29 -88 -93.5t-92 -137.5q-58 -133 -43.5 -215t65.5 -114q53 -34 116 -22t114 66q124 137 59 302q-33 75 -82 140q-26 36 -49 74v0zM500 1215q-29 0 -60 -11q-59 -20 -109 -88t-58 -188q-1 -61 26 -113.5t65 -103.5q29 -41 56 -85q29 41 77 117.5t86 155.5
q85 188 10 277q-38 39 -93 39v0z" />
    <glyph glyph-name="nine" unicode="9" horiz-adv-x="837" 
d="M184 156q-74 -4 -150 50q-7 5 -8 13t3 15q5 7 13 8t15 -3q89 -64 172 -33q101 41 182 178t141.5 308t98.5 316q-72 -130 -162 -250t-170 -159q-93 -38 -133 37q-30 67 -7 183.5t93 231.5t179 180q49 26 96 18t84.5 -31t58.5 -44q7 15 12 28q4 8 10.5 11t14.5 1
q8 -3 11.5 -9.5t1.5 -14.5q-6 -23 -14 -56q-26 -102 -68 -248.5t-102 -297.5t-138 -266t-175 -154q-29 -11 -59 -12v0zM519 1210q-24 -1 -49 -14q-138 -81 -218 -274q-67 -176 -30 -268q6 -16 24 -25t57 6q58 28 128 114.5t135 193t107 193.5q-12 12 -35.5 30t-54.5 32
t-64 12v0z" />
    <glyph glyph-name="colon" unicode=":" horiz-adv-x="149" 
d="M79 677q0 -12 -8 -20.5t-20 -8.5t-20.5 8.5t-8.5 20.5t8.5 20.5t20.5 8.5t20 -8.5t8 -20.5v0zM58 487q0 -12 -8.5 -20.5t-20.5 -8.5t-20.5 8.5t-8.5 20.5t8.5 20.5t20.5 8.5t20.5 -8.5t8.5 -20.5v0z" />
    <glyph glyph-name="semicolon" unicode=";" horiz-adv-x="131" 
d="M1 419q-6 0 -12 3q-6 6 -7.5 13.5t3.5 14.5q5 9 7 21t2 18q0 8 6 14t14 6t14 -6t6 -14q0 -2 -0.5 -12.5t-4.5 -24t-12 -25.5q-7 -8 -16 -8v0zM61 677q0 -12 -8 -20.5t-20 -8.5t-20.5 8.5t-8.5 20.5t8.5 20.5t20.5 8.5t20 -8.5t8 -20.5v0z" />
    <glyph glyph-name="semicolon" unicode="&#x37e;" horiz-adv-x="131" 
d="M1 419q-6 0 -12 3q-6 6 -7.5 13.5t3.5 14.5q5 9 7 21t2 18q0 8 6 14t14 6t14 -6t6 -14q0 -2 -0.5 -12.5t-4.5 -24t-12 -25.5q-7 -8 -16 -8v0zM61 677q0 -12 -8 -20.5t-20 -8.5t-20.5 8.5t-8.5 20.5t8.5 20.5t20.5 8.5t20 -8.5t8 -20.5v0z" />
    <glyph glyph-name="less" unicode="&#x3c;" horiz-adv-x="463" 
d="M269 457q-4 0 -8 1l-249 106q-12 5 -12 18q1 14 13 19l351 128q9 2 16 -1t10 -11t-0.5 -15.5t-11.5 -10.5l-303 -110l202 -86q8 -3 11 -10.5t0 -15.5q-7 -12 -19 -12v0z" />
    <glyph glyph-name="equal" unicode="=" horiz-adv-x="456" 
d="M366 627h-1v0l-326 6q-8 0 -13.5 6t-5.5 14q0 9 5.5 14.5t14.5 5.5l326 -6q9 -1 14.5 -6.5t5.5 -14.5q-1 -8 -6.5 -13.5t-13.5 -5.5v0zM346 459v0v0l-326 7q-9 0 -14.5 6t-5.5 14q0 9 6 14.5t14 5.5l326 -7q9 0 14.5 -5.5t5.5 -14.5q0 -8 -6 -14t-14 -6v0z" />
    <glyph glyph-name="greater" unicode="&#x3e;" horiz-adv-x="457" 
d="M21 459q-6 0 -11.5 4t-7.5 11q-2 8 2 15t12 9l293 76l-239 117q-8 4 -10.5 11.5t1.5 14.5q4 8 11.5 10.5t15.5 -0.5l287 -141q12 -6 11 -20q-2 -13 -15 -17l-345 -90h-5v0z" />
    <glyph glyph-name="question" unicode="?" horiz-adv-x="638" 
d="M52 254q-3 0 -7 2q-8 3 -11 10t0 15q45 111 119.5 212t151.5 190q63 74 114 141.5t74 126.5q30 85 -16 133q-55 49 -144 20q-168 -69 -197 -333q-1 -9 -7 -14t-14 -4q-9 1 -14 7t-5 14q33 290 224 368q112 37 185 -30q63 -66 25 -175q-24 -64 -77 -134t-117 -145
q-76 -88 -149 -186.5t-116 -204.5q-6 -12 -19 -13v0zM22 159q-4 0 -8 1q-8 3 -11 10.5t0 15.5l11 29q3 7 10.5 10.5t15.5 0.5t11 -10.5t0 -15.5l-11 -29q-6 -12 -18 -12v0z" />
    <glyph glyph-name="at" unicode="@" horiz-adv-x="858" 
d="M271 100q-83 5 -126 47q-93 89 -99 264t77 351q63 124 170.5 208.5t224.5 102.5q104 15 171 -33q60 -43 82 -128q30 -130 -22 -283q-57 -154 -153 -195q-56 -21 -87 8q-20 18 -26 49t-3 65q-19 -25 -49 -61q-113 -140 -172 -95q-39 36 -24 122t64 158q103 139 237 56
q7 -5 8.5 -13t-3.5 -15t-12.5 -8.5t-14.5 2.5q-64 39 -109.5 18t-73.5 -63q-44 -68 -55.5 -137t7.5 -89q7 -7 36 9.5t81 79.5q52 64 72 92.5t22 34.5q1 4 2 6q3 10 13 14q10 3 18 -3q7 -5 8 -14v-5.5t-3 -10.5q-11 -46 -12.5 -94.5t15.5 -68.5q14 -12 46 1
q85 40 131.5 172.5t19.5 257.5q-12 56 -59 99.5t-150 32.5q-107 -17 -206 -95.5t-158 -193.5q-76 -162 -72.5 -325.5t85.5 -242.5q100 -86 278 31q7 4 15 2.5t13 -8.5q4 -7 2.5 -15t-8.5 -12q-123 -79 -201 -75v0z" />
    <glyph glyph-name="A" unicode="A" horiz-adv-x="1579" 
d="M1037 -141q-6 0 -11.5 4t-7.5 11q-32 142 10 343.5t131 419t196 406.5t204 307q-144 -58 -299.5 -203t-311.5 -315q-160 -174 -320 -323.5t-315.5 -216t-300.5 6.5q-7 4 -9.5 12t1.5 15q4 8 11.5 10t15.5 -2q131 -66 278 0.5t301 211.5t309 313q123 133 241.5 250
t232 197t222.5 101q14 1 22 -11q5 -13 -4 -23q-96 -99 -208 -287.5t-207 -411.5q-219 -525 -161 -790q2 -8 -2 -15t-13 -9q-2 -1 -5 -1v0zM6 761q-9 1 -15 9q-5 6 -4 14t8 13q5 6 68 41t172.5 63.5t254.5 15.5q178 -22 355 -57q124 -23 232 -39t184 -11q127 11 198 27t73 18
q8 2 15 -1.5t10 -11.5q2 -9 -1.5 -16t-11.5 -10q-4 -2 -76.5 -18.5t-203.5 -27.5q-80 -5 -190.5 11t-235.5 40q-177 35 -352 56q-137 12 -241.5 -15.5t-164 -60t-61.5 -36.5q-6 -4 -13 -4v0z" />
    <glyph glyph-name="B" unicode="B" horiz-adv-x="1294" 
d="M491 634q-88 -187 -166 -388q-6 -13 -18 -13q-4 0 -8 2q-7 3 -10.5 10.5t-0.5 15.5q74 190 156 368q-17 -3 -34 -7q-136 -36 -219.5 -122t-109.5 -179q-37 -139 47 -227q59 -56 134 -72t140 -12q159 10 316.5 82.5t247.5 176.5q48 59 78 123q-268 243 -520 243
q-17 0 -33 -1zM465 672q148 313 323 589q5 7 12.5 8.5t15.5 -2.5q7 -5 8.5 -12.5t-2.5 -15.5q-168 -264 -311 -564q117 3 240 -44q156 -61 309 -199q55 159 -8 286q-79 143 -277 126q-7 0 -18 -2.5t-21 -4.5q-12 -2 -19 -4q-4 -1 -10.5 -1t-12.5 3t-8 12q-1 2 -1 7t4 10
t13 9q184 72 270 177.5t68 193.5q-29 111 -208 98q-212 -23 -416.5 -166.5t-314.5 -346.5q-5 -7 -12.5 -9.5t-14.5 0.5q-8 5 -10.5 12.5t1.5 14.5q107 202 319 356q223 157 445 179q211 14 250 -129q21 -106 -72 -223q-49 -67 -179 -144q78 -2 139 -32q79 -39 121 -117
q74 -151 3 -334q34 -33 67 -69q6 -6 5.5 -14t-6.5 -14t-14 -5.5t-14 6.5q-27 30 -55 56q-30 -62 -78 -120q-94 -110 -260 -186t-332 -87h-31q-174 0 -273 96q-100 104 -57 266q32 112 124 201q100 95 234 128q32 8 64 11z" />
    <glyph glyph-name="C" unicode="C" horiz-adv-x="950" 
d="M219 -34q-37 -1 -72 12q-147 55 -147 332q0 152 52.5 327.5t141.5 323.5q98 157 220 270t229 146q79 21 123 2t63 -51q51 -80 24 -224q-28 -136 -99 -226q-6 -6 -14 -7t-15 4q-6 6 -7 14t5 14q64 83 90 205t-18 198q-40 62 -141 33q-101 -32 -216.5 -140t-209.5 -259
q-87 -144 -137.5 -313.5t-50.5 -316.5q0 -249 121 -295q82 -26 193.5 22t222 136t188.5 180q5 6 13 7t15 -5q6 -5 7 -13t-5 -15q-48 -58 -127 -129t-176 -133q-59 -38 -130.5 -68t-142.5 -31v0z" />
    <glyph glyph-name="D" unicode="D" horiz-adv-x="1345" 
d="M385 479q-87 -8 -152 -41q-86 -44 -133 -108q-96 -137 -23 -249q61 -81 202 -88.5t337 60.5q183 66 331 242q-110 80 -248 136q-145 50 -259 50h-13q-5 -13 -9 -26l-105 -316q-6 -14 -19 -14q-3 0 -6 1q-8 3 -11.5 10t-1.5 15l106 317q2 5 4 11zM440 520q129 0 273 -52
q146 -59 259 -142q64 83 114 182q165 338 96 605q-43 135 -124 189t-160 61q-179 19 -362 -76t-286 -260q-4 -7 -12 -9t-15 2q-7 5 -9 12.5t2 15.5q104 170 303 275q201 102 384 80q244 -36 317 -279q73 -282 -98 -634q-52 -102 -117 -187q53 -40 85 -67t35 -31
q6 -6 6.5 -14t-5.5 -14t-13.5 -6.5t-14.5 5.5q-1 1 -33 28t-85 67q-156 -186 -351 -256q-199 -67 -321 -64q-120 3 -181.5 38.5t-81.5 67.5q-45 63 -39 142.5t62 154.5q88 114 245 152q42 9 85 12q49 140 110 294q72 181 127 311t59 139q4 7 11.5 10t15.5 0q7 -4 10 -11.5
t0 -14.5q-4 -9 -59 -138.5t-127 -309.5q-58 -145 -105 -278z" />
    <glyph glyph-name="E" unicode="E" horiz-adv-x="918" 
d="M323 -1q-39 0 -76 11q-169 57 -217 280q-30 165 31 335q69 188 229 314q134 104 279 59q-67 94 -61 180.5t52 146.5q43 58 98.5 81.5t102.5 4.5q33 -10 60 -65.5t5 -190.5q-2 -9 -8.5 -13.5t-14.5 -2.5q-9 1 -13.5 8t-2.5 15q30 177 -42 212q-34 14 -76.5 -6.5
t-76.5 -65.5q-15 -18 -32 -61.5t-9.5 -105t66.5 -133.5l41 -48q5 -6 5 -13t-5 -13t-12 -7t-13 3q-165 103 -319 -16q-115 -93 -173.5 -202t-73 -216t2.5 -192q42 -200 189 -250q187 -50 427 198l67 70q6 6 14 6t15 -5q6 -6 6 -14t-6 -15l-67 -70q-131 -137 -254 -189
q-72 -30 -138 -30v0z" />
    <glyph glyph-name="F" unicode="F" horiz-adv-x="711" 
d="M612 1351l4 8q4 7 11.5 9.5t15.5 -0.5q8 -4 11 -12v-6q52 -1 107 -6q132 -13 204 -17.5t102 -3.5t36 3q2 2 4 3q8 4 15.5 1.5t11.5 -10.5q5 -11 -1 -21q-2 -3 -6.5 -6t-16 -6t-35.5 -3.5t-65 1t-103 6t-150 13.5q-62 5 -120 6q-75 -155 -155 -344q-32 -75 -64 -149
l178 -3q9 0 14.5 -6t5.5 -14q-1 -9 -6.5 -14.5t-13.5 -5.5h-1l-195 4q-61 -136 -127 -270q-111 -227 -237 -379q-7 -7 -15 -7q-7 0 -14 5q-6 6 -6.5 14t4.5 14q123 149 233 373q61 124 118 250l-93 2q-8 1 -14 6.5t-6 14.5q1 8 6.5 13.5t13.5 5.5h1l110 -2q36 82 71 164
q76 179 148 329q-92 -1 -174 -13q-155 -22 -250 -50.5t-99 -31.5q-4 -1 -8 -1q-12 0 -18 13q-3 8 0 15t11 10q4 4 102 33t257 52q93 14 198 13z" />
    <glyph glyph-name="G" unicode="G" horiz-adv-x="1081" 
d="M889 640q-12 -17 -50 -71q-53 -76 -118 -198.5t-107 -266.5q-20 -73 -28 -119.5t-8.5 -72.5t2.5 -36.5t4 -12.5q8 2 14 -1.5t9 -10.5q2 -8 -1 -15.5t-11 -10.5q-5 -2 -11 -2q-13 0 -26 10q-11 9 -17.5 34.5t0 83.5t34.5 163q55 185 138 328q-46 -50 -99 -101
q-313 -306 -460 -285q-144 25 -152 221q-2 133 56 307t162 347q242 387 510 451q129 25 180 -84q34 -83 2 -191.5t-133 -184.5q-7 -5 -15 -3.5t-13 8.5t-3.5 15t8.5 13q88 66 117 161.5t0 165.5q-11 30 -42.5 51t-92.5 10q-251 -60 -484 -433q-101 -168 -157.5 -336.5
t-54.5 -295.5q5 -165 118 -182q66 -7 162.5 55t201.5 159.5t196 196.5q70 76 117 133h-42q-100 -1 -175.5 -2.5t-90.5 -3.5q-2 -1 -5 -1q-6 0 -11.5 4t-7.5 11q-2 8 2.5 15t12.5 9q18 4 107.5 5.5t194 2t154.5 0.5q8 0 14 -6t6 -14t-6 -14t-14 -6h-87z" />
    <glyph glyph-name="H" unicode="H" horiz-adv-x="1355" 
d="M201 -67v0v0v0zM534 772q-62 -130 -120 -255q-84 -181 -125 -288q-33 -89 -51.5 -146.5t-26.5 -89t-9.5 -45t-0.5 -15.5q1 -7 -2.5 -13.5t-10.5 -9.5q-3 -1 -7 -1q-12 0 -19 13q-13 43 90 321q41 107 125 290q54 118 112 239q-57 -1 -113 -6q-148 -13 -246.5 -31
t-103.5 -20q-3 -1 -5 -1q-7 0 -12 4t-7 11q-2 9 2 15.5t13 8.5q5 3 105.5 21.5t251.5 31.5q67 6 135 6q22 46 45 93q92 190 158 322.5t71 141.5q4 8 11.5 10.5t15.5 -1.5q7 -4 9.5 -11.5t-0.5 -15.5q-5 -9 -71 -141t-158 -322q-18 -38 -37 -76q64 -1 128 -7q214 -19 381 -1
q39 84 79 168q106 221 181.5 371.5t80.5 159.5q4 8 11.5 10.5t15.5 -1.5q7 -4 9.5 -11.5t-1.5 -15.5q-5 -9 -79.5 -159t-180.5 -370q-35 -74 -69 -147q144 18 210 40q8 2 15 -1.5t10 -11.5q2 -8 -1.5 -15.5t-11.5 -9.5q-74 -24 -242 -44q-59 -127 -114 -253
q-98 -222 -149 -374q-36 -112 -58 -190.5t-34 -129.5t-16.5 -79t-5 -39.5t-0.5 -12.5v1l-39 -8q-1 2 -1 14.5t4.5 42t16.5 82t35 134t60 197.5q51 154 149 376q52 117 105 234q-161 -15 -365 3q-72 7 -143 7z" />
    <glyph glyph-name="I" unicode="I" horiz-adv-x="609" 
d="M156 40q-3 -1 -6 -1h-2l-125 -12h-2q-8 0 -13.5 5t-6.5 13t4 14t14 7l117 12q15 36 78 186q77 185 176 432q86 212 137 345.5t75.5 206t32 102t6.5 34.5q0 2 -1 3.5t-2 1.5q-14 5 -65 -34.5t-134 -137.5q-82 -99 -148.5 -206t-99.5 -198.5t-14 -141.5q3 -8 0 -15.5
t-10 -10.5q-8 -4 -15.5 -1t-10.5 11q-37 87 57 274q81 158 210 314q32 39 76 84t87.5 75.5t75.5 25.5q7 -1 17 -8.5t16 -26.5q1 -3 1 -9.5t-3 -22.5t-11.5 -46t-26 -80t-45 -124t-68 -178.5t-96.5 -243.5q-101 -249 -179 -437q-51 -122 -71 -170l94 10q8 1 14 -4t7 -14
q1 -8 -4 -14.5t-13 -7.5z" />
    <glyph glyph-name="J" unicode="J" horiz-adv-x="832" 
d="M131 -13q-20 0 -38 7q-93 37 -91 182q11 189 177 371q168 178 446 279q71 198 116.5 346t48.5 184q-19 6 -97 -38q-84 -54 -125 -120q-49 -82 21 -133q7 -5 8 -13t-4 -15t-13 -8t-15 4q-87 66 -42 166q44 82 133.5 142.5t144.5 52.5q29 -8 29 -39q-3 -39 -47.5 -184
t-108.5 -328q40 13 81 24q9 2 15.5 -2t9.5 -12q2 -8 -2 -15t-12 -9q-57 -16 -109 -34q-54 -151 -132.5 -339.5t-148.5 -290.5q-132 -175 -245 -178v0zM607 777q-248 -97 -399 -258q-156 -170 -166 -344q-2 -116 64 -143q98 -27 238 157q98 139 263 588v0z" />
    <glyph glyph-name="K" unicode="K" horiz-adv-x="1015" 
d="M152 399l-112 -272q-6 -12 -18 -12q-4 0 -8 1q-8 4 -11 11t0 15l115 281q-11 4 -20 3q-7 -3 -8 -3q-8 -3 -15 0t-11 10q-3 7 -0.5 14.5t9.5 11.5t13 5q18 6 61 28l371 906q3 8 10.5 11t15.5 0q8 -4 11 -11t0 -15l-354 -862q18 9 39 21q121 65 320 203
q156 115 300.5 271.5t238 277.5t98.5 130q5 7 13 8.5t15 -3.5t8 -13t-3 -15q-5 -9 -100 -132t-241.5 -281.5t-305.5 -274.5q-157 -110 -265 -173q-86 -50 -140 -77l-11 -25q43 -35 96 -97q67 -80 162 -163.5t226.5 -125t307.5 2.5q8 2 15 -2t9 -12t-1.5 -15t-12.5 -10
q-90 -24 -174 -24q-149 0 -284 77q-89 53 -157 118.5t-121 126.5q-43 49 -78 82z" />
    <glyph glyph-name="L" unicode="L" horiz-adv-x="1152" 
d="M277 117q-2 -5 -2 -8q-4 -15 -4 -19q0 -3 -1 -6q-8 -14 -20 -14h-5q-6 1 -11 7.5t-2 20.5l3 15q-35 -4 -66 -7q-137 -15 -146 -17h-2q-8 0 -13.5 5t-6.5 13t4 14.5t13 7.5q9 2 147 17q38 4 80 8q9 39 24 101q20 73 80.5 251t133 382.5t127.5 357t63 173.5q3 8 10 11.5
t15 0.5t11.5 -10t0.5 -15q-4 -11 -58 -161t-127.5 -357.5t-135.5 -388.5t-81 -254q-13 -55 -21 -87q93 9 206 17q190 14 359 12q225 -5 277 -6h36q2 -1 4 -1h2q20 -2 20 -20q-1 -8 -7 -14t-14 -6h-3t-7 0.5t-15 0.5t-26 0.5t-39.5 1t-56 1t-75.5 1.5t-97 2q-167 2 -356 -12
q-120 -9 -218 -18z" />
    <glyph glyph-name="M" unicode="M" horiz-adv-x="1061" 
d="M697 -71h-1q-8 0 -13.5 6t-5.5 15q-1 7 15.5 129t71.5 338q62 214 174 515q61 167 109.5 309.5t48.5 186.5q0 14 -2 16q-6 0 -27.5 -17t-59.5 -62q-71 -85 -142 -209q-73 -129 -199 -371q-133 -255 -223.5 -419.5t-123.5 -200.5q-8 -7 -14.5 -9t-11 -0.5t-6.5 2.5
q-22 12 -7 77q9 46 32 131q44 168 105 374q42 147 76 269.5t34 146.5t-2 29q-6 -3 -22 -21t-46 -62t-78 -125q-64 -113 -127.5 -254t-114.5 -263q-82 -197 -99 -212q-13 -11 -27 -4q-11 7 -9 23t12 51q14 45 41 129q46 141 130 386q72 209 129 372.5t64 183.5v1
q3 8 10.5 11.5t15.5 0.5t11.5 -10t0.5 -15q-70 -200 -148.5 -427.5t-140.5 -410.5q101 244 218 458q70 122 114 177q48 61 78 51q15 -4 21.5 -17.5t7.5 -28t1 -23.5q0 -27 -29.5 -136.5t-82.5 -290.5q-39 -134 -78 -273.5t-56 -220.5q52 83 138 243.5t172 325.5
q126 242 199 372q76 130 150 219q37 44 62 63.5t40 23.5t24 1q11 -2 20.5 -14t9.5 -41q0 -49 -47 -188t-113 -322q-112 -300 -173 -511q-55 -214 -71 -335t-15 -124q0 -9 -6 -14t-14 -5v0z" />
    <glyph glyph-name="N" unicode="N" horiz-adv-x="1269" 
d="M21 61q-9 0 -16 8q-5 7 -4 15t8 13q175 134 289 312t191 381t140 411q31 98 63 196q2 8 8.5 11.5t14.5 1.5t12 -8t4 -14q-2 -8 -15 -136.5t-23.5 -317.5t-4.5 -379t42 -321q25 -82 54 -85h1v0q8 0 27.5 14t51.5 62.5t76 147.5q42 98 75.5 192.5t51.5 150.5l2 4
q3 10 10 32v1q21 72 69 207.5t119.5 279.5t163.5 241q7 6 14.5 6t14.5 -6q6 -6 6 -14t-6 -14q-89 -93 -159 -234t-116.5 -274t-67.5 -204q-7 -23 -10 -34l-2 -4q-101 -306 -179 -450.5t-141 -143.5h-1v0q-59 1 -92 113q-36 127 -43.5 304.5t1 358t21.5 317.5l-2 -8
q-1 -2 -2 -5q-64 -211 -142 -417t-195 -388t-297 -319q-6 -4 -12 -4v0z" />
    <glyph glyph-name="O" unicode="O" horiz-adv-x="969" 
d="M153 657q-130 -348 -50 -534q31 -65 86 -84q75 -24 171.5 30.5t197.5 176.5q115 143 194.5 324t97 356.5t-51.5 304.5q-103 168 -297 126q-84 -20 -163 -80.5t-133 -154.5t-62 -215q-4 -74 13 -140q57 118 118.5 200t112.5 130q65 61 106.5 89.5t45.5 28.5q7 4 15 1.5
t12 -9.5q3 -8 1 -15.5t-10 -11.5q-2 0 -42 -27t-101 -86q-54 -50 -118 -138.5t-122 -218.5q40 -98 96.5 -160t94.5 -79q8 -3 11 -10.5t-1 -15.5q-3 -8 -10.5 -11t-15.5 1q-39 16 -95 73.5t-101 148.5zM225 -8q-25 1 -48 9q-72 24 -111 105q-88 207 56 584q5 10 9 21
q-33 89 -28 199q9 130 67.5 232t144.5 167t177 87q223 48 340 -145q66 -124 61.5 -263t-38.5 -252q-83 -285 -266 -515q-196 -235 -364 -229z" />
    <glyph glyph-name="P" unicode="P" horiz-adv-x="1010" 
d="M222 274q-9 -31 -16 -54l-58 -198q-6 -15 -19 -15q-3 0 -6 1q-8 3 -11.5 10t-1.5 15l57 198q6 20 13 45q-42 3 -69 16q-39 17 -57 36q-54 58 -26 143q21 64 94 121q68 53 177 73q25 81 51 166q58 187 100.5 325t48.5 157l1 1q3 9 10 12.5t15 1.5q8 -3 11.5 -10t1.5 -15
q-3 -10 -45 -146t-100 -326q-26 -83 -50 -161q60 3 122 -4q78 -9 132.5 -22.5t61.5 -15.5q8 -3 11.5 -10t1.5 -15q-3 -8 -10 -12t-15 -1q-3 1 -55.5 13.5t-127.5 22.5q-69 8 -134 2q-25 -81 -48 -158l-48 -156q4 0 8 1q72 2 191 38q153 51 287.5 179t201.5 288q36 80 44 191
t-52 233q-71 130 -245 135q-132 3 -286 -80.5t-262 -261.5q-5 -8 -12.5 -10t-15.5 2q-7 5 -9 12.5t2 14.5q97 166 256 264.5t327 98.5q198 -6 280 -156q110 -211 10 -459q-70 -168 -217 -307q-143 -132 -297 -182q-139 -43 -223 -41zM192 315q20 66 49 161q22 71 44 145
q-83 -18 -137 -59q-64 -49 -82 -104q-21 -62 17 -102q12 -14 49 -29q23 -9 60 -12z" />
    <glyph glyph-name="Q" unicode="Q" horiz-adv-x="1137" 
d="M562 82q-117 -67 -190 -63q-56 2 -89 22q-97 54 -104 205v33q-70 -2 -147 -46q-8 -4 -15.5 -2t-12.5 9q-4 7 -2 15t9 12q83 50 170 51q13 215 126 457q151 306 353 385q76 28 130 0q25 -13 39 -31.5t20 -33t7 -15.5q2 -9 -2 -15.5t-13 -9.5q-8 -2 -15 2t-9 12
q0 1 -4.5 11t-14.5 23t-27 22q-38 20 -97 -2q-138 -57 -242 -211.5t-160 -337.5q-44 -141 -52 -259q39 -4 79 -19q65 -24 127 -65.5t126 -90.5q6 -5 11 -9q183 123 317 353q140 240 162 487q9 88 -15.5 189t-110.5 177q-143 108 -346 24q-131 -60 -211.5 -173.5
t-90.5 -251.5q0 -9 -6 -14t-15 -5q-8 1 -13.5 7t-5.5 14q10 150 97 272.5t229 186.5q225 93 387 -29q158 -132 141 -400q-23 -256 -168 -505q-135 -230 -317 -358q64 -47 130 -87q90 -55 192 -69t222 41q8 4 15.5 1t10.5 -10q4 -8 1.5 -15.5t-10.5 -11.5q-100 -47 -198 -47
q-75 0 -152 28q-76 29 -145 76q-52 34 -101 71zM219 276v-28q6 -129 83 -172q86 -44 225 32q-82 65 -161 113q-73 44 -147 55z" />
    <glyph glyph-name="R" unicode="R" horiz-adv-x="1091" 
d="M284 298q65 12 153 35q-25 21 -57 33q-30 10 -71 11q-13 -43 -25 -79zM240 290q12 39 26 85q-11 0 -23 -2q-119 -19 -155 -40q-26 -12 -35 -20.5t-8 -10.5q0 -3 10.5 -8t35 -9t66.5 -3q32 0 83 8zM320 416q38 -2 67 -11q57 -20 95 -59l24 8q153 51 287 179t202 287
q36 80 44 191t-52 234q-71 130 -245 135q-132 3 -286 -80.5t-262 -262.5q-5 -7 -12.5 -9t-15.5 2q-7 4 -9 11.5t2 15.5q97 165 256 264t327 99q198 -6 280 -157q110 -211 10 -458q-70 -169 -217 -307q-144 -132 -297 -182l-6 -2q17 -21 35 -43q37 -50 91.5 -103.5t146.5 -99
t244 -71.5q9 -2 13.5 -8.5t3.5 -14.5q-2 -8 -7.5 -12.5t-12.5 -4.5h-3q-160 28 -257 76t-154 104t-97 109q-23 30 -45 55q-113 -32 -199 -47l-33 -110l-57 -198q-6 -14 -19 -14h-6q-8 3 -12 10t-2 15l58 198q11 37 28 93q-36 -4 -65 -5q-115 -3 -146 29q-17 19 -10 43
q30 68 231 97q21 3 41 4q49 161 104 339q57 187 100 325t49 158v1q3 8 10 11.5t15 1.5q8 -3 12 -10t2 -15q-3 -10 -45.5 -146t-100.5 -325q-55 -178 -105 -340z" />
    <glyph glyph-name="S" unicode="S" horiz-adv-x="827" 
d="M123 9q-68 3 -87 31q-36 41 -10 108q27 71 132.5 151.5t292.5 124.5q-33 79 -113 177q-59 74 -111.5 158.5t-69 177t31.5 190.5q86 161 241 260q142 87 275 87q130 -3 176 -93q30 -51 7.5 -157t-154.5 -285q-5 -7 -13 -8t-15 4q-6 6 -7.5 13.5t3.5 14.5q88 118 122 198
t34.5 129t-13.5 73q-35 69 -141 71h-4q-74 0 -163.5 -37t-172 -109.5t-139.5 -179.5q-43 -87 -27 -170t65 -161.5t107 -151.5q41 -53 73.5 -101t46.5 -92q59 11 125 15q8 1 14 -4.5t7 -13.5q0 -9 -5 -15t-14 -7q-64 -4 -119 -14q16 -131 -73 -236q-81 -92 -205 -132
q-59 -16 -97 -16v0zM459 385q-151 -37 -226 -85q-131 -77 -170 -167q-6 -13 -8 -32t10 -34q36 -34 144 -3q106 32 182.5 115t67.5 206v0z" />
    <glyph glyph-name="T" unicode="T" horiz-adv-x="716" 
d="M225 40q-3 0 -7 1q-8 3 -11 10.5t0 15.5l480 1247l-22 2q-133 10 -309 18q-203 7 -275 1q-18 -2 -27.5 -4t-13.5 -4.5t-6 -4.5q-6 -6 -14 -6t-14 6t-6 14t6 14q7 8 19.5 14t45.5 9.5t101 4t185 -3.5q178 -8 310 -18q181 -16 349.5 -14.5t402.5 47.5q9 2 15.5 -2.5
t8.5 -12.5q1 -9 -3 -15.5t-13 -8.5q-219 -43 -378 -47.5t-321 8.5l-484 -1258q-6 -13 -19 -13v0z" />
    <glyph glyph-name="U" unicode="U" horiz-adv-x="959" 
d="M609 -56q-8 0 -15 5q-25 15 -20 89q6 91 51 276q41 163 112 363.5t142 380.5q-102 -184 -227 -393.5t-246.5 -378t-209.5 -230.5q-99 -65 -150 -13q-54 54 -31 246q19 162 87 395q65 220 142 411.5t140 285.5q5 7 12.5 8.5t15.5 -2.5q6 -5 7.5 -13t-2.5 -15
q-60 -91 -137 -281.5t-140 -405.5q-70 -241 -87 -400t22 -201q28 -28 99 19q86 60 209 233.5t252.5 391.5t234.5 410t154 288q4 8 11 10.5t15 -1.5q7 -3 10 -10.5t0 -15.5q-6 -12 -83 -199.5t-169 -438.5t-144 -453q-28 -117 -39 -184t-11.5 -97.5t2.5 -37.5q10 0 16 -8
q5 -7 4 -15t-8 -13q-8 -6 -19 -6v0zM584 -73v0v-1v1z" />
    <glyph glyph-name="V" unicode="V" horiz-adv-x="670" 
d="M47 -19q-7 0 -13 3q-8 3 -15.5 13.5t-12.5 36.5t-5.5 75t4.5 129q11 176 51 474q35 262 67 462t35 213q1 8 7.5 12.5t15.5 3.5q8 -2 12.5 -8.5t3.5 -14.5q-2 -12 -33 -205.5t-66 -450.5q-39 -291 -52 -468q-8 -123 -4.5 -173t8.5 -58l4 4q76 91 168.5 254t193.5 357
q100 189 199 365.5t193 306t177 178.5q8 4 15.5 2t12.5 -10q4 -7 1.5 -15t-9.5 -12q-79 -47 -172 -177t-190.5 -304t-190.5 -353q-103 -195 -196.5 -359.5t-171.5 -258.5q-22 -22 -37 -22z" />
    <glyph glyph-name="W" unicode="W" horiz-adv-x="1162" 
d="M581 -90q-31 0 -57 18q-116 79 -110 510q2 128 11 232q-41 -117 -102 -251t-134 -226q-84 -102 -136 -75q-53 25 -44 177q8 146 69 395q93 366 153.5 518t65.5 152q5 7 12.5 9t15.5 -2q7 -4 9 -12t-2 -15q-3 3 -63.5 -148t-151.5 -511q-46 -193 -60 -306t-7.5 -164.5
t21.5 -56.5q8 -5 30 9t58 56q56 70 106.5 174t90 207.5t62.5 174.5t24 76q3 7 9.5 11t14.5 2q7 -1 11.5 -7.5t3.5 -14.5q-1 -7 -12 -125.5t-15 -279.5q-4 -404 92 -476q36 -24 91 7q199 120 355 740q57 231 86 446q24 210 12 224q-4 7 -2.5 14.5t8.5 12.5q7 4 15 2.5
t13 -8.5q13 -26 8.5 -100t-15.5 -152q-30 -226 -90 -466q-69 -273 -154 -459q-102 -225 -216 -289q-41 -23 -76 -23z" />
    <glyph glyph-name="X" unicode="X" horiz-adv-x="1233" 
d="M825 667q21 -159 48 -288q43 -207 80 -332t39 -129q3 -8 -0.5 -15.5t-11.5 -10.5q-3 -1 -6 -1q-13 0 -19 14q-3 5 -40 131t-81 335q-25 115 -44 254q-214 -254 -378 -414q-176 -172 -276 -250.5t-103 -78.5q-6 -3 -11 -3q-10 0 -17 9q-5 7 -3 14.5t8 12.5q4 0 102.5 77.5
t272.5 247.5q172 168 397 439q-9 72 -16 149q-27 263 -4 542q1 8 7 13.5t15 4.5q8 -1 13 -7t5 -15q-23 -275 4 -535q5 -56 12 -109q213 253 384 419q182 177 288.5 261.5t110.5 84.5q7 5 15 3.5t13 -8.5q5 -8 3.5 -15.5t-8.5 -12.5q-4 -1 -109.5 -84t-285.5 -258
q-179 -173 -404 -445z" />
    <glyph glyph-name="Y" unicode="Y" horiz-adv-x="1061" 
d="M156 -89q-49 0 -82 17.5t-50.5 35t-18.5 20.5q-5 7 -4 15t8 13t15 3.5t13 -8.5q1 -2 16 -16.5t43.5 -27.5t70.5 -11q323 22 593 515q85 157 152.5 326.5t118.5 322.5q-63 -123 -147 -264t-180 -268q-113 -149 -237 -219q-125 -68 -206 -26q-29 14 -53.5 58.5t-20 137
t61.5 249.5q50 135 108 270t99.5 226.5t44.5 97.5q4 7 11.5 10t15.5 -1q7 -3 10 -10.5t-1 -15.5q-2 -5 -44 -96.5t-99.5 -226t-107.5 -268.5q-58 -157 -59.5 -260.5t53.5 -135.5q58 -31 165 25t227 209q121 163 222 341.5t162.5 305.5t64.5 135t10 10.5t15 0.5q8 -3 11 -10
t1 -15q-12 -36 -25 -76v-2q-57 -182 -141 -411t-200.5 -446t-270.5 -364t-352 -165q-7 -1 -13 -1z" />
    <glyph glyph-name="Z" unicode="Z" horiz-adv-x="1122" 
d="M23 74q-9 0 -15 7q-8 10 -3 22q15 25 277 367q120 153 297 321t341 305.5t244 200.5q-79 5 -375 16q-119 4 -182.5 0t-88.5 -10.5t-28 -10.5q-2 -11 -12 -16q-9 -3 -16 0.5t-10 11.5q-2 2 -2 9.5t6 16.5q2 4 9.5 10t26.5 12.5t55 11.5t95.5 6.5t148.5 -1.5
q166 -6 259.5 -10.5t131.5 -6.5t37 -2q14 -2 18 -14q3 -13 -7 -22q-12 -8 -181.5 -146t-381.5 -332.5t-353 -373.5q-202 -265 -243 -320q52 11 151 16.5t244 -9.5q141 -14 248.5 2t169 36.5t64.5 23.5q7 3 14.5 0.5t11.5 -10.5q4 -7 1 -14.5t-11 -11.5q-7 -7 -109 -38
t-272 -35q-58 0 -121 7q-210 19 -320.5 2.5t-112.5 -20.5q-3 -1 -6 -1z" />
    <glyph glyph-name="bracketleft" unicode="[" horiz-adv-x="522" 
d="M63 152q-24 0 -45 3q-11 2 -16 14q-1 2 -1.5 7t1 16.5t6.5 33.5t15 58.5t26.5 91.5t41 132t58.5 181q29 86 66.5 196.5t67.5 195.5t36 96q2 2 6.5 5.5t16 6t34 2t58.5 -6.5q9 -1 13.5 -7.5t3.5 -14.5q-1 -9 -7.5 -13.5t-15.5 -3.5q-24 3 -45.5 4.5t-31.5 0.5
q-13 -33 -58.5 -164t-104.5 -308q-142 -434 -147 -486q21 -1 43.5 0t35.5 2q8 1 14 -4t7 -14q1 -8 -4 -14t-14 -7q-4 -1 -21.5 -2t-38.5 -1v0zM347 1149v0v0v0z" />
    <glyph glyph-name="backslash" unicode="\" horiz-adv-x="706" 
d="M540 50v0q-10 1 -16 11l-546 1140q-3 7 -0.5 14.5t10.5 11.5t15.5 1.5t11.5 -10.5l545 -1139q4 -8 1 -15.5t-10 -11.5q-6 -3 -11 -2z" />
    <glyph glyph-name="bracketright" unicode="]" horiz-adv-x="521" 
d="M20 144q-8 0 -13.5 5.5t-6.5 13.5q0 9 5.5 14.5t13.5 6.5l85 3q51 157 114 355t115.5 362.5t70.5 222.5q-13 1 -32 1.5t-38 -0.5q-9 0 -14.5 5.5t-6.5 13.5q0 9 5.5 15t14.5 6q36 1 57.5 0t32.5 -4t15 -6t6 -5q7 -9 4 -20q-3 -10 -42.5 -134.5t-94.5 -296t-103.5 -323.5
t-69.5 -218q-5 -13 -18 -14l-99 -3h-1v0z" />
    <glyph glyph-name="asciicircum" unicode="^" 
 />
    <glyph glyph-name="underscore" unicode="_" horiz-adv-x="756" 
d="M603 268v0v0l-578 6q-15 0 -25 6t-10 14q1 9 11 14.5t25 5.5l578 -6q15 -1 25 -6.5t10 -14.5q-1 -8 -11 -13.5t-25 -5.5v0z" />
    <glyph glyph-name="grave" unicode="`" horiz-adv-x="1024" 
d="M673 1079h-69l-330 202q-31 20 -46.5 40t-15.5 42q0 31 20.5 51t53.5 20q20 0 40.5 -12t55.5 -47z" />
    <glyph glyph-name="a" unicode="a" horiz-adv-x="491" 
d="M-66 418q-10 0 -18 3t-17 15.5t-9 39.5q4 63 53.5 143.5t117.5 108.5q23 9 53 4.5t62 -38.5q20 26 32 43t13 17q4 7 11.5 8.5t14.5 -2.5t9 -11t-1 -14q-45 -109 -47.5 -164t18.5 -66q30 -17 99.5 25.5t151.5 141.5q5 7 13 8t15 -5q6 -5 7 -13t-4 -15q-151 -181 -263 -187
q-23 0 -40 11q-23 11 -34 48t6 111q-50 -64 -106 -122q-91 -91 -137 -90v0zM-67 458v0h3.5t11.5 3.5t20.5 11.5t30.5 23.5t43 40.5q58 59 109 125l-4 4q-29 34 -64 27q-45 -12 -86 -66.5t-60 -114.5q-8 -28 -7 -40.5t3 -13.5v0v0z" />
    <glyph glyph-name="b" unicode="b" horiz-adv-x="337" 
d="M-108 393q-5 0 -9 2q-7 4 -10 11t0 15q5 11 38.5 91.5t84.5 199.5v1q68 159 140.5 319t121.5 249q48 86 81 81q5 0 13.5 -4.5t14.5 -18.5q19 -59 -18.5 -147t-89.5 -169q-70 -108 -140.5 -207.5t-86.5 -120.5q-12 -28 -23 -54q31 41 58 65q40 33 67.5 38.5t43.5 -1.5
q36 -15 41 -65q5 -53 -28 -116.5t-103 -111.5q-48 -27 -91 -19t-62 20q-24 -44 -26 -47q-7 -11 -17 -11v0zM-45 485q15 -8 46.5 -14t64.5 12q60 42 88.5 95.5t24.5 95.5q0 6 -3.5 16.5t-12.5 15.5q-24 8 -70 -30q-32 -29 -69.5 -83.5t-68.5 -107.5v0zM332 1318
q-10 -7 -39 -57q-73 -135 -184 -389q60 85 116 173q122 194 107 273v0z" />
    <glyph glyph-name="c" unicode="c" horiz-adv-x="272" 
d="M-31 401q-14 0 -26 5q-43 20 -33 100q13 80 61.5 148.5t97.5 89.5q21 7 34 4t19 -9q30 -25 13 -105q-2 -9 -8.5 -13t-14.5 -3q-9 2 -13.5 8.5t-2.5 15.5q3 16 4 28t0.5 19.5t-1.5 11.5t-2 5.5l-1 1.5q-2 2 -13 -1q-36 -16 -78.5 -75t-54.5 -131q-6 -50 10 -59
q11 -5 43.5 8t86.5 53q90 69 165 156q6 7 14 7.5t15 -5.5q6 -5 6.5 -13t-4.5 -15q-79 -90 -172 -162q-93 -70 -145 -70v0z" />
    <glyph glyph-name="d" unicode="d" horiz-adv-x="416" 
d="M109 147q-6 0 -14 4q-22 10 -22 77q0 51 25.5 159t67.5 227q-135 -175 -200 -230q-26 -20 -43 -19t-25 9q-25 22 -22 70t25 94q14 34 57.5 100t103.5 99q41 17 72.5 0.5t45.5 -39.5q23 30 46 62q64 141 143.5 294.5t120.5 211.5q6 8 17 20.5t25 19.5t29 0q15 -9 17 -27.5
t-2.5 -37t-7.5 -27.5q-13 -38 -63.5 -121.5t-175.5 -258.5q-35 -49 -68 -94q-19 -42 -33 -75q-50 -126 -82.5 -253.5t-32.5 -183.5q1 -36 4 -42q6 -2 10 -9t2 -14.5t-10 -12.5q-4 -2 -10 -3v0zM97 706q-9 -1 -18 -5q-72 -38 -142 -180q-19 -43 -20.5 -76.5t6.5 -39.5l4.5 2
t12.5 8q68 57 216 251q-4 3 -6 7q-1 1 -8 9t-18.5 16t-26.5 8v0zM538 1261q-6 -6 -16 -19q-24 -33 -68 -114t-94 -181q146 210 170 280q7 21 8 34v0z" />
    <glyph glyph-name="e" unicode="e" horiz-adv-x="337" 
d="M41 422q-83 1 -100 80q-11 65 27 140q41 78 103 99q30 9 49 -1.5t25 -29.5q8 -26 -4.5 -54t-43.5 -40q-17 -5 -35.5 -3t-34 6.5t-22.5 7.5q-33 -63 -25 -118q10 -51 68 -47q134 8 273 206q6 7 13.5 8.5t14.5 -3.5t8.5 -13t-3.5 -15q-48 -73 -124 -142.5t-179 -80.5h-10v0
zM28 662q14 -5 30 -7.5t26 -0.5q15 6 21 19.5t2 23.5q0 2 -2 4.5t-7 3.5t-15 -2q-31 -11 -55 -41v0z" />
    <glyph glyph-name="f" unicode="f" horiz-adv-x="304" 
d="M-212 44q-14 0 -21 12q-3 3 -5 11.5t0.5 28t13.5 58t34 102.5q56 154 147 355q86 190 179.5 360.5t154.5 223.5q21 15 35 15.5t21 -5.5q28 -17 13 -79q-25 -99 -90 -192t-134.5 -163.5t-107.5 -102.5q-14 -29 -28 -59q-36 -79 -68 -155q107 17 190 72t167 146q6 6 14 6
t14 -5q6 -6 6.5 -14t-5.5 -15q-88 -94 -178.5 -153.5t-207.5 -76.5q31 -96 -9 -204.5t-117 -159.5q-9 -6 -18 -6v0zM-100 378q-26 -64 -46 -119q-48 -133 -51 -162q56 48 83.5 129.5t13.5 151.5v0zM325 1169l-9 -6q-78 -67 -241 -396q71 68 145 165.5t101 202.5q6 27 4 34v0
z" />
    <glyph glyph-name="g" unicode="g" horiz-adv-x="426" 
d="M-316 -202q-19 0 -33 10q-18 10 -24.5 41t16.5 94q30 78 118 199t237 253q78 68 152 120q21 47 38 90q-88 -100 -151 -153q-85 -73 -126 -59q-9 2 -19 12t-12 34q-2 65 52.5 157.5t125.5 133.5q66 32 116 -12q7 -6 7.5 -14t-5.5 -14q-6 -7 -14 -7.5t-14 5.5q-30 27 -72 6
q-62 -36 -109.5 -119t-46.5 -133q1 -10 3 -11h3.5t11 2.5t19.5 9t29.5 19.5t41 34.5t54.5 52.5t70 75t86 101q5 6 12 7t14 -2q6 -4 8.5 -11t-0.5 -14q-26 -65 -60 -147q89 58 146 88.5t59 31.5q8 4 15.5 1t11.5 -10q4 -8 1 -15.5t-10 -11.5q-4 -1 -75 -40t-177 -112
q-72 -170 -168 -342.5t-211 -285.5q-67 -63 -120 -64v0zM118 442q-47 -36 -94 -77q-144 -129 -229.5 -245.5t-114.5 -191.5q-26 -76 -7 -87q10 -7 37.5 3.5t66.5 46.5q99 97 185.5 247t155.5 304v0z" />
    <glyph glyph-name="h" unicode="h" horiz-adv-x="435" 
d="M-118 367q-5 0 -9 2q-8 3 -10.5 10.5t0.5 14.5q2 6 37.5 88t88.5 203t106 243t91 206q79 175 146 182q23 1 36 -19q34 -74 -76 -257q-34 -52 -91.5 -131.5t-108 -147t-62.5 -83.5q-18 -40 -34 -77q57 79 109 124q14 11 31 18.5t34 -0.5q21 -12 23 -44.5t-3 -79.5
q-2 -21 -3.5 -47t0.5 -47t11 -27q1 0 4.5 -0.5t11.5 1.5t20.5 8.5t31.5 19.5q41 30 75 62.5t55 55.5t22 24q6 7 14 7.5t14 -4.5q7 -6 7.5 -14t-4.5 -14q-2 -3 -24 -27t-57.5 -57.5t-78.5 -64.5q-24 -19 -54.5 -31.5t-56.5 0.5q-28 18 -31 62.5t3 96.5q2 23 3 47.5t-2 36.5
q-4 -1 -21 -14q-35 -29 -74.5 -80t-75 -104.5t-58 -91.5t-23.5 -40q-7 -10 -17 -10v0zM333 1277q-8 1 -37.5 -31.5t-73.5 -127.5q-50 -113 -123 -281q45 61 89 122.5t70 102.5q60 99 71.5 152.5t3.5 62.5v0z" />
    <glyph glyph-name="i" unicode="i" horiz-adv-x="258" 
d="M-28 429q-18 0 -31 9q-16 14 -18.5 34.5t1 40t7.5 30.5q22 74 93 201q4 7 12 9.5t15 -1.5q7 -5 9.5 -12.5t-1.5 -15.5q-19 -33 -33.5 -61.5t-25 -51.5t-17.5 -41t-11.5 -32.5t-7 -25t-3 -18t0 -12t1.5 -7t1.5 -4l0.5 -1.5l1.5 -0.5t4 -0.5t7.5 0.5t12 2.5t16.5 6.5
t22 11.5t28.5 18q82 56 186 161q6 6 14 6t15 -5q6 -7 6 -15t-6 -14q-35 -36 -89.5 -85t-111.5 -87t-99 -40v0zM86 812q-5 0 -9 2q-8 4 -10.5 11.5t1.5 15.5l14 27q4 7 11.5 9.5t14.5 -0.5q8 -4 10.5 -12t-1.5 -15l-13 -27q-7 -11 -18 -11v0z" />
    <glyph glyph-name="j" unicode="j" horiz-adv-x="204" 
d="M-557 -218q-12 0 -22 6q-10 5 -19.5 18.5t-13.5 40.5q-8 73 61 195t227 263q113 98 239 188q58 134 96 231q3 8 10.5 11t15.5 0t11 -10.5t0 -15.5q-29 -74 -70 -172q90 64 150 103t63 41q8 4 15.5 2.5t12.5 -8.5q4 -8 2.5 -15.5t-8.5 -12.5q-5 -3 -81 -53t-185 -127
q-82 -192 -194 -378.5t-244 -280.5q-39 -26 -66 -26v0zM-119 419q-95 -71 -179 -144q-169 -153 -225.5 -265.5t-48.5 -158.5q3 -22 13 -28l1.5 -0.5t4.5 0t8.5 2.5t13.5 6t18 11q115 80 215.5 240.5t178.5 336.5v0zM62 801q-4 0 -8 1q-7 4 -10 11.5t0 15.5l13 30
q4 8 11.5 10.5t14.5 -0.5q8 -3 11 -10.5t0 -15.5l-13 -30q-7 -12 -19 -12v0z" />
    <glyph glyph-name="k" unicode="k" horiz-adv-x="418" 
d="M-119 337q-4 0 -8 2q-7 3 -10 10t-1 14l2 5l7 17.5t14 35.5t24 58.5t37 86.5q32 76 104 237l9 19q40 88 84 180q37 78 65 133t48 90t33 55.5t22 29.5t14 12t9 3q25 5 38 -13q19 -34 -9.5 -104t-61.5 -126q-49 -83 -114.5 -166t-93.5 -116q-53 -118 -88 -197q31 46 59 80
q99 114 161 94q5 -2 10.5 -7.5t9.5 -15.5t1 -27q-10 -48 -53.5 -92t-92.5 -58q-29 -7 -47 -9q48 -72 99 -78q52 -4 109 42t118 111l1 1q11 12 23 24q7 6 15 6t14 -6t6 -14t-6 -14q-12 -12 -24 -25q-62 -66 -122.5 -114.5t-122.5 -51.5q-8 0 -16 1q-70 9 -129 99
q-31 -49 -58 -94.5t-43.5 -75.5t-17.5 -32q-7 -10 -18 -10v0zM205 741q-11 0 -40.5 -18.5t-69.5 -65.5q-18 -21 -37 -47q14 2 33 6q37 10 72 46t44 72v7h-2v0zM340 1283q-6 -6 -24 -34t-52.5 -93.5t-90.5 -183.5q-5 -11 -11 -22q61 78 104 152q43 76 59 121t15 60v0z" />
    <glyph glyph-name="l" unicode="l" horiz-adv-x="243" 
d="M-83 185q-7 0 -13 5q-5 3 -11 12.5t-9.5 32t0.5 64.5t20 110q24 99 67 222l18 49q23 61 50 124q80 191 131.5 290t81.5 135t48 40q15 5 24 1t12 -8q21 -20 -10 -100q-23 -60 -69 -151q-45 -85 -117 -189t-115 -161q-55 -146 -82 -262q-8 -33 -12.5 -58.5t-6.5 -44.5
t-2 -32.5t1 -22t2.5 -13t2.5 -6t2 -1.5q6 -6 6.5 -14t-4.5 -15q-7 -7 -15 -7v0zM304 1226q-10 -7 -28 -31.5t-47 -75.5q-58 -105 -142 -302q83 117 135 212q80 164 82 197v0z" />
    <glyph glyph-name="m" unicode="m" horiz-adv-x="578" 
d="M-109 357q-6 0 -11 3q-10 8 -9.5 19t5.5 23q5 16 16 46q19 49 54 133q31 74 55 131t26 60q3 8 10.5 11t15.5 0q8 -4 11 -11.5t0 -15.5q-53 -121 -97 -229q64 102 114 170q37 47 61 56.5t37 0.5q25 -17 11 -55q-63 -155 -74 -213q14 17 31 42t32 49q39 64 64.5 93.5
t46.5 24.5q12 -4 17.5 -12.5t7 -17.5t1.5 -14q4 -54 12.5 -84t19.5 -49q4 -6 7 -8t6 -3q23 0 63.5 32t80 72t61.5 63q6 6 14 6.5t14 -5.5t6.5 -14t-5.5 -14q-94 -101 -149.5 -142.5t-89.5 -36.5q-10 1 -21.5 7t-21.5 23q-13 22 -22.5 56t-14.5 93q-13 -15 -30.5 -41.5
t-33.5 -50.5q-60 -100 -94 -120q-13 -6 -21.5 -3.5t-12.5 6.5q-3 2 -6.5 8.5t-3 22t7.5 45t24 78t47 121.5q-13 -6 -41 -41q-25 -33 -58 -83.5t-65 -102.5q-57 -91 -80 -120q-9 -9 -18 -9v0z" />
    <glyph glyph-name="n" unicode="n" horiz-adv-x="470" 
d="M-119 355q-4 0 -9 2q-7 4 -9.5 11t0.5 15l168 385q3 7 10.5 10t15.5 0t11 -10.5t-1 -15.5l-72 -166q36 50 66 78q36 34 59 47.5t37 15t22 -2.5q7 -3 15 -12t8 -30q0 -7 -1 -17q-2 -29 1 -72t23 -62q1 -1 4.5 -3t10 -3t17.5 2q33 9 68 31t64.5 47t47.5 43.5t19 19.5
q6 6 14 6.5t14 -5.5t6.5 -14t-5.5 -14q-3 -5 -36 -36.5t-82 -66.5t-101 -50q-24 -5 -40.5 -0.5t-25.5 12.5q-31 28 -36 78t-3 88v1q1 9 1 15q0 3 -1 4q-4 0 -21.5 -10t-51.5 -41q-25 -24 -57 -67.5t-62 -89.5t-49.5 -78.5t-21.5 -34.5q-7 -10 -17 -10v0z" />
    <glyph glyph-name="o" unicode="o" horiz-adv-x="256" 
d="M-53 370q-32 -1 -46 15q-26 28 -23 80t25 102q21 46 48 72.5t47 37.5t23 11q8 2 15 -1.5t10 -11.5t-0.5 -15t-11.5 -10q-2 0 -18 -9t-37.5 -30.5t-38.5 -59.5q-20 -46 -22 -85t11 -52q7 -6 18 -4t21 7q71 38 100 128q24 85 -9 150l-3 6q-4 8 -1.5 15.5t9.5 11.5t14.5 1.5
t12.5 -9.5q1 -2 3 -5q5 -10 20.5 -27.5t51.5 -30t77 8.5q8 5 15.5 3.5t12.5 -8.5q5 -8 3 -15.5t-9 -12.5q-56 -31 -96 -18t-52 20q5 -49 -10 -101q-34 -107 -121 -152q-23 -11 -39 -12z" />
    <glyph glyph-name="p" unicode="p" horiz-adv-x="364" 
d="M-224 -12q-4 0 -8 2q-8 3 -11.5 10t-0.5 15q5 15 16 43l243 669q3 8 10 11.5t15 0.5t11.5 -10.5t0.5 -15.5l-52 -142q88 150 155 175q33 12 62 -3q23 -13 32 -48q8 -28 3.5 -67.5t-29.5 -80.5q-24 -39 -68.5 -74t-94.5 -44q-45 -6 -80 17q-99 -203 -169 -396l-17 -49
q-6 -12 -18 -13v0zM-2 482q24 -18 56 -13q40 7 77 36t58 63q20 33 23.5 64.5t-2.5 52.5q-3 11 -6.5 16.5t-5.5 6.5q-13 7 -29 0q-37 -15 -81 -76t-90 -150v0z" />
    <glyph glyph-name="q" unicode="q" horiz-adv-x="320" 
d="M-119 -119q-4 0 -9 2q-7 4 -9.5 11t0.5 15l278 657q-18 -24 -40 -53q-113 -146 -182 -116q-48 27 -28 114q14 54 60.5 121.5t110.5 85.5q20 5 47 -2.5t54 -41.5q2 -2 3 -5q21 30 32 46.5t15 24l4 7.5q4 8 11.5 10.5t14.5 -0.5q8 -3 11 -10.5t0 -15.5l-283 -668
q24 20 38 15q7 0 14.5 -6.5t10.5 -23.5q5 -26 10.5 -35.5t9.5 -10.5q4 -3 15.5 -0.5t35.5 17.5q8 5 15.5 3t12.5 -9t3 -14.5t-9 -12.5q-18 -13 -42 -21.5t-48 0.5q-30 14 -40 67q-18 -18 -45.5 -57.5t-52.5 -83.5q-7 -10 -18 -10v0zM81 680q-5 0 -11 -1q-46 -14 -86 -70.5
t-54 -107.5q-12 -58 7 -68q10 -7 43 13t89 91q48 64 78 105q-9 0 -15 7q-24 31 -51 31v0z" />
    <glyph glyph-name="r" unicode="r" horiz-adv-x="338" 
d="M22 755l3 6q4 6 10 9q7 3 15 0t11 -10q3 -5 2 -11v-2q-1 -1 -1 -2l-49 -127q32 49 53 74.5t34.5 34.5t23.5 8q17 1 27 -14l1 -2q27 -44 48.5 -64t53.5 -12q40 12 55.5 19l15.5 7q18 8 25.5 -8.5t-1.5 -23.5q-2 -2 -20.5 -10.5t-63.5 -21.5q-16 -5 -30 -5
q-39 2 -65.5 29.5t-47.5 63.5q-8 -4 -35 -39t-81 -125q-36 -63 -61.5 -111t-26.5 -51q-7 -11 -18 -11q-4 0 -8 2q-8 3 -11 10.5t0 14.5z" />
    <glyph glyph-name="s" unicode="s" horiz-adv-x="273" 
d="M-91 238q-11 0 -20 3q-18 7 -23 29q-6 28 22 80.5t105 123.5q8 8 17 16q-2 49 -8 91.5t-10 64.5q-7 50 22 81.5t57 41.5q8 3 15.5 -0.5t10.5 -10.5q3 -8 0 -15.5t-11 -10.5q-2 -1 -11.5 -6t-21 -15t-18.5 -24.5t-4 -33.5q10 -48 17 -131q83 67 146 109.5t67 44.5
q7 4 15 2.5t13 -8.5q4 -8 2 -15.5t-9 -12.5q-5 -2 -74.5 -49.5t-156.5 -120.5q2 -74 -18 -129q-24 -55 -59.5 -80t-64.5 -25v0zM-94 278q14 -3 41 14.5t49 65.5q12 33 14 78q-66 -64 -87 -105t-17 -53v0z" />
    <glyph glyph-name="t" unicode="t" horiz-adv-x="213" 
d="M-221 -109q-8 1 -13.5 6.5t-5.5 14.5q6 125 83.5 355t183 484t194.5 451q4 7 11.5 10t14.5 0q8 -4 11 -11.5t-1 -15.5q-72 -160 -177.5 -412t-189 -493t-90.5 -369q0 -9 -6 -14.5t-14 -5.5h-1v0zM548 888h-1l-807 23q-9 0 -14.5 6t-5.5 14q1 9 6.5 14.5t14.5 5.5l807 -23
q9 -1 14.5 -7t5.5 -14q-1 -8 -6.5 -13.5t-13.5 -5.5v0z" />
    <glyph glyph-name="u" unicode="u" horiz-adv-x="447" 
d="M-36 424h-5q-20 3 -28 23q-11 38 3.5 92.5t34.5 100t27 57.5q4 7 11.5 9.5t15.5 -1.5q7 -4 9.5 -11.5t-1.5 -15.5q-25 -48 -47 -112t-16 -101q7 1 34 22t83 81q40 44 69 80t34 44q24 35 26 36q5 5 12 6t14 -3q6 -4 8 -11t-1 -14q-22 -46 -33.5 -104t12.5 -83
q23 -13 84.5 33.5t122.5 115.5q6 7 14 7.5t14 -5.5q7 -5 7.5 -13t-5.5 -15q-2 -3 -29.5 -32t-67.5 -64q-116 -100 -166 -58q-23 21 -27.5 53.5t1.5 68.5q-28 -34 -61 -71q-67 -72 -100.5 -93.5t-48.5 -21.5v0z" />
    <glyph glyph-name="v" unicode="v" horiz-adv-x="343" 
d="M-7 397q-5 0 -8.5 1.5t-5.5 3.5q-8 4 -13.5 18.5t-3.5 52.5t15 113q10 59 20 103t11 47q2 8 9 12.5t15 2.5t12 -9t3 -15q-1 -2 -10 -42t-19 -95q-21 -121 -17 -143q44 47 105 138.5t95 146.5q4 7 10.5 9t13.5 -1t10.5 -9t1.5 -14q0 -1 -1 -8t0.5 -16.5t7.5 -19t18 -15.5
q14 -6 26.5 -5.5t22 4.5t15 8t5.5 5q7 5 15 4.5t14 -6.5q5 -6 5 -14t-7 -14q0 -1 -9 -7.5t-24.5 -13t-35.5 -7t-44 9.5q-30 16 -40 41q-39 -63 -95 -143t-94 -114q-13 -9 -23 -9z" />
    <glyph glyph-name="w" unicode="w" horiz-adv-x="509" 
d="M108 272q-21 0 -32 11q-56 43 -19 258l-4 -6q-45 -57 -72 -82q-5 -5 -14.5 -11.5t-20.5 -9.5t-22 4q-14 8 -12.5 35t27.5 92q36 87 80 158q5 7 12.5 9t15.5 -3q7 -4 8.5 -12t-2.5 -15q-35 -56 -62.5 -118.5t-36.5 -98.5q17 14 68 77l55 71q5 6 11.5 7.5t12.5 -1.5
q7 -3 10 -9t1 -13q-19 -94 -25 -152.5t-3.5 -90t8 -44t8.5 -13.5q1 -1 3.5 -2t7.5 -0.5t13 4.5q39 20 83 82.5t77 139.5t33 138q0 5 -1 9q-1 1 -2 3q-4 8 -6 17t5 17q9 10 22 6q8 -3 12.5 -11.5t6.5 -18.5q5 -11 18 -31q11 -20 31 -24q27 -4 55 8t40 21q7 5 15 3.5t13 -8.5
t3.5 -15t-8.5 -13q-2 -2 -21 -12.5t-47 -19t-58 -3.5q-25 5 -43 23q-21 -107 -85 -210t-126 -137q-19 -9 -33 -9z" />
    <glyph glyph-name="x" unicode="x" horiz-adv-x="305" 
d="M15 548q0 -31 3 -54q8 -75 30 -87q7 -4 8.5 -12t-2.5 -15q-7 -9 -17 -9q-6 0 -11 3q-43 29 -50 135q-87 -89 -181 -198q-6 -7 -15 -7q-7 0 -13 5q-6 6 -6.5 14t4.5 15q108 125 208 225l2 1q1 69 13 160q1 9 7.5 13.5t14.5 3.5q9 -1 14 -7t4 -15q-8 -64 -11 -114
q88 84 212 188q7 6 15 5t14 -7q5 -7 4 -15t-7 -13q-144 -121 -240 -215z" />
    <glyph glyph-name="y" unicode="y" horiz-adv-x="376" 
d="M-262 -184h-11q-38 6 -54 44q-35 110 122 301q157 179 325 318q12 29 24 56q-33 -41 -69.5 -71.5t-73.5 -39.5q-24 -6 -38 -0.5t-20 14.5q-7 8 -10.5 25t2.5 50t28 89q18 44 34 75.5t17 34.5q5 7 12.5 9.5t14.5 -1.5q8 -4 10.5 -11.5t-1.5 -15.5l-16.5 -33t-33.5 -74
q-12 -30 -18 -51t-8.5 -35t-2 -22t1.5 -11.5t2 -3.5q3 -4 16 -1q46 14 94 66t87 112t58 97q4 7 11.5 9.5t15.5 -0.5q7 -4 9.5 -11t0.5 -15q-4 -8 -24.5 -57.5t-54.5 -126.5q78 62 126.5 98.5t51.5 37.5q7 5 15 3.5t13 -8.5t3.5 -14.5t-8.5 -13.5q-4 -2 -70 -51.5
t-166 -132.5q-67 -155 -141 -308.5t-124 -225.5q-81 -105 -150 -105v0zM82 393q-136 -118 -256 -257q-76 -93 -102 -161t-13 -100q6 -17 22 -19q18 -3 50.5 17t72.5 72q41 59 102.5 184t123.5 264v0z" />
    <glyph glyph-name="z" unicode="z" horiz-adv-x="327" 
d="M-73 123q-19 0 -27 8q-50 40 3 143q59 99 177 202q-8 30 -21 50.5t-23.5 31.5t-11.5 11q-8 5 -8 15q-1 9 6 15q49 47 85 88.5t47 62.5q-14 -1 -73 -49q-27 -22 -45.5 -40t-19.5 -20v0q-6 -6 -14 -6t-14 6t-6.5 14t5.5 14q2 2 23 22t50 45q88 74 122 51q13 -8 15 -23
q3 -12 -11 -38t-63 -81q-35 -38 -58 -60q18 -18 37 -54q6 -12 11 -26q114 95 203 158q7 4 15 3t13 -8t3.5 -15t-8.5 -13q-84 -58 -216 -169q9 -55 -17 -131q-29 -76 -72 -131q-36 -45 -63 -60.5t-44 -15.5v0zM85 426q-98 -89 -147 -171q-21 -39 -22 -62.5t6 -28.5
q6 -4 27 7.5t54 52.5q39 50 65 120q17 46 17 82v0z" />
    <glyph glyph-name="braceleft" unicode="{" horiz-adv-x="549" 
d="M65 36q-12 1 -27 10.5t-26.5 29.5t-11.5 53q0 38 21 122.5t43.5 162.5t32.5 107q8 29 2.5 50.5t-17 36.5t-22 22.5t-11.5 8.5q-11 6 -11 18q1 12 12 17q1 1 18.5 10.5t39.5 27.5t39 44q12 21 35 76t48 119q30 76 57 141.5t45 94.5q32 46 70.5 54t61.5 0q8 -3 11.5 -10.5
t1.5 -15.5q-3 -8 -10 -11.5t-15 -0.5q-4 1 -18 2.5t-32.5 -6.5t-35.5 -33q-16 -28 -43.5 -93t-55.5 -137q-27 -68 -49.5 -123t-36.5 -78q-18 -29 -42 -49.5t-44 -31.5q25 -22 39.5 -58.5t0.5 -86.5q-29 -92 -62 -214t-33 -166q0 -18 4.5 -28.5t10 -16t10.5 -7.5t6 -2l-3 -20
l-3 -19v0z" />
    <glyph glyph-name="bar" unicode="|" 
d="M427 1577h160v-1995h-160v1995z" />
    <glyph glyph-name="braceright" unicode="}" horiz-adv-x="577" 
d="M21 15q-8 0 -13.5 5t-6.5 13t4 14.5t13 7.5q16 1 39 14t42 46q15 28 43 94t55.5 139t40.5 120q13 48 39.5 77t50.5 43q-16 16 -23 54q-6 54 80 270q44 112 64 180q9 35 6.5 52t-7.5 22q-3 4 -6.5 6t-6 2.5l-2.5 0.5q-8 0 -14 6t-6 14t6 14t14 6q1 0 9 -1t18 -6.5
t20 -16.5q27 -36 8 -110q-21 -70 -65 -184q-29 -74 -55 -148.5t-24 -99.5q3 -18 8.5 -27.5t10.5 -13t7 -4.5q14 -2 16 -17q1 -7 -3 -12.5t-11 -8.5l-12 -6t-28.5 -18.5t-32 -33t-22.5 -49.5q-13 -49 -41.5 -123.5t-57.5 -142.5t-44 -97q-25 -45 -57 -62t-53 -18q-2 -1 -3 -1
v0z" />
    <glyph glyph-name="asciitilde" unicode="~" 
d="M923 878v-156q-63 -72 -122 -97.5t-116 -25.5q-60 0 -177.5 48.5t-176.5 48.5q-51 0 -107.5 -28t-129.5 -112v156q64 73 123 99t114 26q64 0 181.5 -49.5t172.5 -49.5q52 0 108.5 28t129.5 112z" />
    <glyph glyph-name="exclamdown" unicode="&#xa1;" horiz-adv-x="672" 
 />
    <glyph glyph-name="cent" unicode="&#xa2;" horiz-adv-x="1139" 
 />
    <glyph glyph-name="sterling" unicode="&#xa3;" horiz-adv-x="596" 
d="M237 178q-40 0 -76 10q-64 19 -99 19t-36 -2h-4q-7 0 -12.5 4t-7.5 11q-2 11 3.5 17t11.5 9q12 8 39 23q61 38 118 246l14 49v0q32 123 80.5 284t95.5 242q40 64 88 68q20 1 35 -5t23.5 -13t9.5 -9q6 -6 5.5 -14t-6.5 -14q-7 -5 -15 -5t-13 6q-1 1 -5.5 4.5t-12.5 7
t-17 2.5q-29 -3 -58 -49q-44 -77 -92 -235.5t-80 -279.5q-7 -28 -13 -49q-19 -75 -50 -149t-72 -111q34 -4 82 -19q33 -9 73 -8t77 8t61.5 14t25.5 7q8 3 15.5 -1t9.5 -12q3 -8 -0.5 -15t-11.5 -10q-4 -1 -31.5 -8.5t-69 -15t-85.5 -7.5v0zM111 646q-8 0 -13.5 5.5
t-6.5 13.5q0 9 5.5 14.5t14.5 6.5l316 6q9 0 14.5 -5.5t6.5 -14.5q0 -8 -5.5 -14t-14.5 -6l-316 -6h-1v0z" />
    <glyph glyph-name="currency" unicode="&#xa4;" 
d="M350 560q41 -40 99 -57q29 -8 58 -8t58 8q58 17 99 57q40 41 57 99q9 29 9 58t-9 58q-17 58 -57 99q-41 40 -100 57q-29 8 -58 8t-58 -9q-58 -17 -98 -56q-39 -40 -56 -98q-10 -30 -10 -60q0 -28 9 -56q16 -59 57 -100zM240 903l-118 118l80 81l118 -118q44 30 99 46
q44 14 89 14q41 0 83 -12q57 -17 102 -48l118 118l80 -81l-117 -117q31 -46 48 -102q12 -42 12 -85q0 -42 -12 -85q-17 -56 -48 -102l117 -117l-80 -81l-118 118q-45 -32 -101 -48q-42 -12 -85 -12q-42 0 -85 12q-57 16 -102 48l-118 -118l-80 81l118 117q-32 46 -48 103
q-12 42 -12 84q0 44 13 87q16 55 47 99z" />
    <glyph glyph-name="yen" unicode="&#xa5;" horiz-adv-x="1262" 
d="M547 225l-2 242q0 19 -1.5 35t-4.5 32l-484 1q-14 0 -21 6.5t-7 19.5t6.5 19t21.5 6h467l-121 172h-344q-17 0 -23.5 5.5t-6.5 18.5q0 14 6 19.5t22 5.5h307q-43 57 -108 155q-131 197 -227 197q-7 0 -13 5.5t-6 11.5q0 19 10.5 27.5t32.5 8.5q27 0 123 -8t164 -8h88
q33 0 41 -6.5t8 -26.5q0 -8 -15 -14t-38 -6q-6 0 -18.5 2t-18.5 2q-24 0 -37.5 -9.5t-13.5 -25.5q0 -18 16.5 -52t46.5 -77l158 -221q13 -19 33 -53q41 -70 71 -70q9 0 16.5 5t14.5 15l277 396q8 12 13 26.5t5 24.5q0 18 -10 27t-37 14q-15 2 -41 4q-47 3 -47 25
q0 15 8 22.5t25 7.5q3 0 15 -1q56 -7 108 -7h139q30 0 65 1t37 1q11 0 18.5 -4.5t8.5 -11.5q0 -28 -38 -34q-18 -3 -27 -5q-63 -15 -147 -117q-7 -9 -12 -15l-169 -206h323q15 0 24 -6t9 -17q0 -15 -6 -20.5t-23 -5.5h-366q-46 -57 -96.5 -112.5t-52.5 -59.5h511
q18 0 25.5 -5.5t7.5 -17.5q0 -14 -7 -21t-22 -7h-530q0 -11 -1 -30.5t-1 -29.5l2 -215q0 -114 5.5 -150t20.5 -44q30 -17 107.5 -19t77.5 -31q0 -12 -10 -20t-25 -8q-2 0 -35.5 4t-64.5 4q-91 0 -208.5 -4t-142.5 -4q-31 0 -40 4t-9 16t8 18.5t37 12.5q9 2 25 5q74 16 92 32
q17 13 24 47t7 102z" />
    <glyph glyph-name="brokenbar" unicode="&#xa6;" 
d="M427 371h160v-789h-160v789zM427 1578h160v-789h-160v789z" />
    <glyph glyph-name="section" unicode="&#xa7;" 
d="M545 321q56 16 97 53q73 65 73 166q0 5 -1 10h-2q-1 14 -4 27q-22 61 -113 127q-59 29 -126 29q-78 0 -125 -44.5t-47 -117.5q0 -123 248 -250zM466 -346q113 6 185 69q72 64 72 165q0 125 -316 276q-123 64 -175.5 137t-52.5 177q0 148 89 237q67 65 170 82l-40 19
q-123 64 -175.5 137t-52.5 177q0 148 89 237q82 79 216 86q8 1 17 1h3q66 0 163 -16.5t97 -41.5v-194h-51q-5 81 -80 132q-70 47 -149 51h-15q-78 0 -125 -44.5t-47 -117.5q0 -132 287 -269q149 -67 204.5 -143.5t55.5 -187.5q0 -171 -101 -282q-47 -39 -99 -64
q108 -56 154 -118q55 -77 55 -187q0 -171 -101 -283q-124 -102 -277 -105v1q-6 -1 -13 -1h-3q-66 0 -163 16.5t-97 41.5v194h51q5 -81 80 -132q68 -45 145 -50z" />
    <glyph glyph-name="dieresis" unicode="&#xa8;" horiz-adv-x="1024" 
d="M223 1289l71 72q13 12 25 12q11 0 27 -14l69 -73q10 -14 10 -25q0 -13 -12 -27l-69 -75q-17 -17 -25 -17q-14 0 -25 12l-76 86q-9 12 -9 23q0 13 14 26zM588 1289l71 72q13 12 25 12q11 0 27 -13l69 -74q10 -14 10 -25q0 -13 -12 -26l-69 -76q-17 -17 -25 -17
q-14 0 -25 12l-76 87q-9 11 -9 22q0 13 14 26z" />
    <glyph glyph-name="copyright" unicode="&#xa9;" horiz-adv-x="1674" 
d="M840 1456q145 0 280 -56.5t239 -160.5q102 -101 158.5 -238t56.5 -283q0 -147 -56.5 -282t-162.5 -240q-105 -105 -239 -159.5t-283 -54.5q-146 0 -278 55.5t-238 160.5q-106 104 -161.5 237.5t-55.5 282.5q0 148 55.5 283t159.5 238q102 104 238.5 160.5t286.5 56.5z
M357 1197q-95 -96 -146 -219.5t-51 -259.5q0 -137 51 -259t148 -219q98 -96 219 -147t256 -51q137 0 259.5 50.5t219.5 145.5q97 98 149 221.5t52 258.5q0 134 -52 259.5t-145 219.5q-96 96 -220 147.5t-258 51.5q-137 0 -262 -51.5t-220 -147.5zM865 223q-142 0 -264 68
t-186 185t-64 243t65.5 244t187.5 184.5t254 66.5q38 0 75 -6.5t76 -20.5q5 -1 9 -1q19 0 26 30h42l72 -198h-44q-52 94 -131 124q-72 26 -147 26h-15q-86 -8 -166.5 -71t-121.5 -177q-33 -90 -33 -184q0 -25 2 -50q11 -121 69.5 -224t149.5 -152q72 -40 166 -42
q124 0 194 56t70 126h53v-100q0 -46 -96.5 -86.5t-242.5 -40.5z" />
    <glyph glyph-name="ordfeminine" unicode="&#xaa;" horiz-adv-x="648" 
 />
    <glyph glyph-name="guillemotleft" unicode="&#xab;" horiz-adv-x="944" 
d="M174 479l342 303h14v-37l-205 -266l205 -266v-37h-14zM487 479l342 303h14v-37l-205 -266l205 -266v-37h-14z" />
    <glyph glyph-name="logicalnot" unicode="&#xac;" 
d="M87 767h840v-491l-1 -1h-98v392h-741v100z" />
    <glyph glyph-name="registered" unicode="&#xae;" horiz-adv-x="1674" 
d="M751 1099v-374l3 -8q23 -56 56 -81q29 -22 56 -22h6q31 4 61.5 38.5t46.5 97.5q13 50 13 103q0 13 -1 27q-4 67 -28 124.5t-56.5 76t-63.5 18.5h-93zM984 576l82 -116q100 -141 150 -141h34v-50h-346v50h45q30 0 30 22q0 29 -69 114l-75 102q-42 0 -84 42v-159
q0 -121 36 -121h53v-50h-316v50h43q37 0 37 121v538q0 121 -37 121h-43v70h356q64 -1 125 -42q60 -41 92.5 -114t32.5 -152q0 -78 -32 -150.5t-114 -134.5zM840 1456q145 0 280 -56.5t239 -160.5q102 -101 158.5 -238t56.5 -283q0 -147 -56.5 -282t-162.5 -240
q-105 -105 -239 -159.5t-283 -54.5q-146 0 -278 55.5t-238 160.5q-106 104 -161.5 237.5t-55.5 282.5q0 148 55.5 283t159.5 238q102 104 238.5 160.5t286.5 56.5zM357 1197q-95 -96 -146 -219.5t-51 -259.5q0 -137 51 -259t148 -219q98 -96 219 -147t256 -51
q137 0 259.5 50.5t219.5 145.5q97 98 149 221.5t52 258.5q0 134 -52 259.5t-145 219.5q-96 96 -220 147.5t-258 51.5q-137 0 -262 -51.5t-220 -147.5z" />
    <glyph glyph-name="macron" unicode="&#xaf;" horiz-adv-x="670" 
 />
    <glyph glyph-name="degree" unicode="&#xb0;" horiz-adv-x="674" 
d="M339 1372q-86 0 -147.5 -61t-61.5 -148t61 -147t148 -60t147 60t60 147t-60.5 148t-146.5 61zM339 1442q115 0 196 -81.5t81 -196.5q0 -114 -82 -196t-197 -82q-117 0 -197 81t-80 197t81.5 197t197.5 81z" />
    <glyph glyph-name="plusminus" unicode="&#xb1;" 
 />
    <glyph glyph-name="uni00B2" unicode="&#xb2;" 
 />
    <glyph glyph-name="uni00B3" unicode="&#xb3;" 
 />
    <glyph glyph-name="acute" unicode="&#xb4;" horiz-adv-x="1024" 
d="M607 1375q35 35 55.5 47t40.5 12q33 0 53.5 -20t20.5 -51q0 -22 -15.5 -42t-46.5 -40l-330 -203h-69z" />
    <glyph glyph-name="mu" unicode="&#xb5;" horiz-adv-x="1180" 
 />
    <glyph glyph-name="paragraph" unicode="&#xb6;" horiz-adv-x="1024" 
d="M929 1435v-70h-127v-1365h-82v1365h-166v-1365h-84v738q-174 8 -275.5 102.5t-101.5 245.5q0 157 107.5 253t285.5 96h443z" />
    <glyph glyph-name="periodcentered" unicode="&#xb7;" horiz-adv-x="508" 
d="M145 740l82 84q15 14 29 14q13 0 31 -16l80 -86q12 -16 12 -29q0 -15 -14 -31l-80 -88q-20 -20 -29 -20q-16 0 -29 14l-88 101q-10 13 -10 26q0 15 16 31z" />
    <glyph glyph-name="periodcentered" unicode="&#x2219;" horiz-adv-x="508" 
d="M145 740l82 84q15 14 29 14q13 0 31 -16l80 -86q12 -16 12 -29q0 -15 -14 -31l-80 -88q-20 -20 -29 -20q-16 0 -29 14l-88 101q-10 13 -10 26q0 15 16 31z" />
    <glyph glyph-name="cedilla" unicode="&#xb8;" horiz-adv-x="1024" 
d="M360 -290q85 -52 152 -52q66 0 94.5 21.5t28.5 66.5t-49 64q-40 16 -102 16q-16 0 -34 -2l48 176h63l-37 -104q32 4 62 5q86 0 134 -40.5t48 -113.5q0 -76 -58.5 -120.5t-160.5 -44.5q-109 0 -189 32v96z" />
    <glyph glyph-name="uni00B9" unicode="&#xb9;" 
 />
    <glyph glyph-name="ordmasculine" unicode="&#xba;" horiz-adv-x="718" 
 />
    <glyph glyph-name="guillemotright" unicode="&#xbb;" horiz-adv-x="944" 
d="M115 176h-14v37l205 266l-205 266v37h14l342 -303zM428 176h-14v37l205 266l-205 266v37h14l342 -303z" />
    <glyph glyph-name="onequarter" unicode="&#xbc;" horiz-adv-x="1708" 
 />
    <glyph glyph-name="onehalf" unicode="&#xbd;" horiz-adv-x="1964" 
 />
    <glyph glyph-name="threequarters" unicode="&#xbe;" horiz-adv-x="1708" 
 />
    <glyph glyph-name="questiondown" unicode="&#xbf;" horiz-adv-x="638" 
d="M494 973q3 0 7 -1q8 -3 11 -10.5t0 -15.5q-45 -111 -119.5 -211.5t-151.5 -190.5q-63 -73 -114 -140.5t-74 -126.5q-30 -86 16 -133q55 -49 144 -20q168 69 197 333q1 8 7 13.5t14 4.5q9 -1 14 -7t4 -15q-32 -289 -223 -367q-112 -37 -185 29q-63 67 -26 175
q25 64 78 134.5t117 145.5q76 88 149 186t116 205q6 12 19 12v0zM524 1069q4 0 8 -1q8 -4 11 -11t0 -15l-11 -29q-3 -8 -10.5 -11t-15.5 0t-11 10.5t0 15.5l11 28q6 13 18 13v0z" />
    <glyph glyph-name="Agrave" unicode="&#xc0;" horiz-adv-x="1579" 
d="M1037 -141q-6 0 -11.5 4t-7.5 11q-32 142 10 343.5t131 419t196 406.5t204 307q-144 -58 -299.5 -203t-311.5 -315q-160 -174 -320 -323.5t-315.5 -216t-300.5 6.5q-7 4 -9.5 12t1.5 15q4 8 11.5 10t15.5 -2q131 -66 278 0.5t301 211.5t309 313q123 133 241.5 250
t232 197t222.5 101q14 1 22 -11q5 -13 -4 -23q-96 -99 -208 -287.5t-207 -411.5q-219 -525 -161 -790q2 -8 -2 -15t-13 -9q-2 -1 -5 -1v0zM6 761q-9 1 -15 9q-5 6 -4 14t8 13q5 6 68 41t172.5 63.5t254.5 15.5q178 -22 355 -57q124 -23 232 -39t184 -11q127 11 198 27t73 18
q8 2 15 -1.5t10 -11.5q2 -9 -1.5 -16t-11.5 -10q-4 -2 -76.5 -18.5t-203.5 -27.5q-80 -5 -190.5 11t-235.5 40q-177 35 -352 56q-137 12 -241.5 -15.5t-164 -60t-61.5 -36.5q-6 -4 -13 -4v0zM1624 1540q-7 0 -13 5l-47 42q-6 6 -6.5 14t4.5 14q6 6 14 6.5t14 -4.5l48 -42
q6 -5 6.5 -13t-5.5 -15t-15 -7v0z" />
    <glyph glyph-name="Aacute" unicode="&#xc1;" horiz-adv-x="1579" 
d="M1037 -141q-6 0 -11.5 4t-7.5 11q-32 142 10 343.5t131 419t196 406.5t204 307q-144 -58 -299.5 -203t-311.5 -315q-160 -174 -320 -323.5t-315.5 -216t-300.5 6.5q-7 4 -9.5 12t1.5 15q4 8 11.5 10t15.5 -2q131 -66 278 0.5t301 211.5t309 313q123 133 241.5 250
t232 197t222.5 101q14 1 22 -11q5 -13 -4 -23q-96 -99 -208 -287.5t-207 -411.5q-219 -525 -161 -790q2 -8 -2 -15t-13 -9q-2 -1 -5 -1v0zM6 761q-9 1 -15 9q-5 6 -4 14t8 13q5 6 68 41t172.5 63.5t254.5 15.5q178 -22 355 -57q124 -23 232 -39t184 -11q127 11 198 27t73 18
q8 2 15 -1.5t10 -11.5q2 -9 -1.5 -16t-11.5 -10q-4 -2 -76.5 -18.5t-203.5 -27.5q-80 -5 -190.5 11t-235.5 40q-177 35 -352 56q-137 12 -241.5 -15.5t-164 -60t-61.5 -36.5q-6 -4 -13 -4v0zM1585 1536q-11 0 -17 11q-4 8 -1.5 15.5t9.5 11.5l74 37q8 4 15.5 1.5t11.5 -10.5
q3 -7 1 -14.5t-10 -11.5l-74 -38q-4 -2 -9 -2v0z" />
    <glyph glyph-name="Acircumflex" unicode="&#xc2;" horiz-adv-x="1579" 
d="M1037 -141q-6 0 -11.5 4t-7.5 11q-32 142 10 343.5t131 419t196 406.5t204 307q-144 -58 -299.5 -203t-311.5 -315q-160 -174 -320 -323.5t-315.5 -216t-300.5 6.5q-7 4 -9.5 12t1.5 15q4 8 11.5 10t15.5 -2q131 -66 278 0.5t301 211.5t309 313q123 133 241.5 250
t232 197t222.5 101q14 1 22 -11q5 -13 -4 -23q-96 -99 -208 -287.5t-207 -411.5q-219 -525 -161 -790q2 -8 -2 -15t-13 -9q-2 -1 -5 -1v0zM6 761q-9 1 -15 9q-5 6 -4 14t8 13q5 6 68 41t172.5 63.5t254.5 15.5q178 -22 355 -57q124 -23 232 -39t184 -11q127 11 198 27t73 18
q8 2 15 -1.5t10 -11.5q2 -9 -1.5 -16t-11.5 -10q-4 -2 -76.5 -18.5t-203.5 -27.5q-80 -5 -190.5 11t-235.5 40q-177 35 -352 56q-137 12 -241.5 -15.5t-164 -60t-61.5 -36.5q-6 -4 -13 -4v0zM1642 1531h-2q-9 1 -14 7.5t-4 14.5q1 10 1 22q-17 -14 -35 -31q-6 -6 -14 -5.5
t-14 6.5t-5.5 14t6.5 14q24 23 39.5 35.5t24.5 17t14.5 4.5t8.5 -1q12 -5 15 -18q1 -9 0.5 -22t-1 -24t-1.5 -16q-1 -7 -6.5 -12.5t-12.5 -5.5v0z" />
    <glyph glyph-name="Atilde" unicode="&#xc3;" horiz-adv-x="1579" 
d="M1037 -141q-6 0 -11.5 4t-7.5 11q-32 142 10 343.5t131 419t196 406.5t204 307q-144 -58 -299.5 -203t-311.5 -315q-160 -174 -320 -323.5t-315.5 -216t-300.5 6.5q-7 4 -9.5 12t1.5 15q4 8 11.5 10t15.5 -2q131 -66 278 0.5t301 211.5t309 313q123 133 241.5 250
t232 197t222.5 101q14 1 22 -11q5 -13 -4 -23q-96 -99 -208 -287.5t-207 -411.5q-219 -525 -161 -790q2 -8 -2 -15t-13 -9q-2 -1 -5 -1v0zM6 761q-9 1 -15 9q-5 6 -4 14t8 13q5 6 68 41t172.5 63.5t254.5 15.5q178 -22 355 -57q124 -23 232 -39t184 -11q127 11 198 27t73 18
q8 2 15 -1.5t10 -11.5q2 -9 -1.5 -16t-11.5 -10q-4 -2 -76.5 -18.5t-203.5 -27.5q-80 -5 -190.5 11t-235.5 40q-177 35 -352 56q-137 12 -241.5 -15.5t-164 -60t-61.5 -36.5q-6 -4 -13 -4v0zM1571 1539q-18 0 -25 11q-8 8 -9.5 19t0.5 20t4 14q3 8 10 11.5t15 0.5t11.5 -10
t0.5 -15l-2 -10q15 5 36 13q69 30 93 15q12 -9 12 -23q0 -20 -3 -35q-3 -19 -21.5 -15t-17.5 17.5t2 20.5q-11 -3 -25.5 -8t-25.5 -9q-22 -9 -38 -14q-10 -3 -17 -3v0z" />
    <glyph glyph-name="Adieresis" unicode="&#xc4;" horiz-adv-x="1579" 
d="M1037 -141q-6 0 -11.5 4t-7.5 11q-32 142 10 343.5t131 419t196 406.5t204 307q-144 -58 -299.5 -203t-311.5 -315q-160 -174 -320 -323.5t-315.5 -216t-300.5 6.5q-7 4 -9.5 12t1.5 15q4 8 11.5 10t15.5 -2q131 -66 278 0.5t301 211.5t309 313q123 133 241.5 250
t232 197t222.5 101q14 1 22 -11q5 -13 -4 -23q-96 -99 -208 -287.5t-207 -411.5q-219 -525 -161 -790q2 -8 -2 -15t-13 -9q-2 -1 -5 -1v0zM6 761q-9 1 -15 9q-5 6 -4 14t8 13q5 6 68 41t172.5 63.5t254.5 15.5q178 -22 355 -57q124 -23 232 -39t184 -11q127 11 198 27t73 18
q8 2 15 -1.5t10 -11.5q2 -9 -1.5 -16t-11.5 -10q-4 -2 -76.5 -18.5t-203.5 -27.5q-80 -5 -190.5 11t-235.5 40q-177 35 -352 56q-137 12 -241.5 -15.5t-164 -60t-61.5 -36.5q-6 -4 -13 -4v0zM1560 1554v0v0q-11 0 -19 8t-8 19t8 19.5t19 8.5t19 -8.5t8 -19.5t-8 -19t-19 -8z
M1637 1552v0v0q-11 0 -19 8t-8 20q0 11 8 19t19 8t19.5 -8t8.5 -19q0 -12 -8.5 -20t-19.5 -8z" />
    <glyph glyph-name="Aring" unicode="&#xc5;" horiz-adv-x="1579" 
d="M1037 -141q-6 0 -11.5 4t-7.5 11q-32 142 10 343.5t131 419t196 406.5t204 307q-144 -58 -299.5 -203t-311.5 -315q-160 -174 -320 -323.5t-315.5 -216t-300.5 6.5q-7 4 -9.5 12t1.5 15q4 8 11.5 10t15.5 -2q131 -66 278 0.5t301 211.5t309 313q123 133 241.5 250
t232 197t222.5 101q14 1 22 -11q5 -13 -4 -23q-96 -99 -208 -287.5t-207 -411.5q-219 -525 -161 -790q2 -8 -2 -15t-13 -9q-2 -1 -5 -1v0zM6 761q-9 1 -15 9q-5 6 -4 14t8 13q5 6 68 41t172.5 63.5t254.5 15.5q178 -22 355 -57q124 -23 232 -39t184 -11q127 11 198 27t73 18
q8 2 15 -1.5t10 -11.5q2 -9 -1.5 -16t-11.5 -10q-4 -2 -76.5 -18.5t-203.5 -27.5q-80 -5 -190.5 11t-235.5 40q-177 35 -352 56q-137 12 -241.5 -15.5t-164 -60t-61.5 -36.5q-6 -4 -13 -4v0zM1635 1523q-23 0 -39.5 16.5t-16.5 39.5t16.5 39.5t39.5 16.5t39.5 -16.5
t16.5 -39.5t-16.5 -39.5t-39.5 -16.5v0zM1635 1603q-10 0 -16.5 -7t-6.5 -17q0 -9 6.5 -16t16.5 -7t17 7t7 16q0 10 -7 17t-17 7v0z" />
    <glyph glyph-name="AE" unicode="&#xc6;" horiz-adv-x="2043" 
d="M1037 -141q-6 0 -11.5 4t-7.5 11q-32 142 10 343.5t131 419t196 406.5t204 307q-144 -58 -299.5 -203t-311.5 -315q-160 -174 -320 -323.5t-315.5 -216t-300.5 6.5q-7 4 -9.5 12t1.5 15q4 8 11.5 10t15.5 -2q131 -66 278 0.5t301 211.5t309 313q123 133 241.5 250
t232 197t222.5 101q14 1 22 -11q5 -13 -4 -23q-96 -99 -208 -287.5t-207 -411.5q-219 -525 -161 -790q2 -8 -2 -15t-13 -9q-2 -1 -5 -1zM1334 777q-33 -4 -70 -7q-80 -5 -190.5 11t-235.5 40q-177 35 -352 56q-137 12 -241.5 -15.5t-164 -60t-61.5 -36.5q-6 -4 -13 -4
q-9 1 -15 9q-5 6 -4 14t8 13q5 6 68 41t172.5 63.5t254.5 15.5q178 -22 355 -57q124 -23 232 -39t184 -11q49 4 89 9zM1481 -23q-39 0 -76 11q-170 56 -217 280q-30 165 30 335q69 187 229 314q135 104 279 59q-66 94 -60.5 180.5t51.5 146.5q44 58 99 81.5t103 4.5
q32 -10 59 -65.5t5 -191.5q-1 -8 -7.5 -12.5t-15.5 -3.5q-8 2 -12.5 8.5t-3.5 15.5q31 176 -41 212q-34 13 -76.5 -7t-76.5 -65q-15 -18 -32.5 -62t-10 -105.5t66.5 -132.5l42 -48q5 -6 5 -13t-5 -13t-12 -7t-14 3q-164 103 -318 -17q-115 -92 -173.5 -201t-73.5 -216
t2 -192q43 -201 189 -250q188 -50 428 197l67 71q6 6 14 6t14 -6t6.5 -14t-5.5 -14l-67 -70q-131 -137 -255 -189q-72 -30 -137 -30z" />
    <glyph glyph-name="Ccedilla" unicode="&#xc7;" horiz-adv-x="950" 
d="M190 -33q-22 3 -43 11q-147 55 -147 332q0 152 52.5 327.5t141.5 323.5q98 157 220 270t229 146q79 21 123 2t63 -51q51 -80 24 -224q-28 -136 -99 -226q-6 -6 -14 -7t-15 4q-6 6 -7 14t5 14q64 83 90 205t-18 198q-40 62 -141 33q-101 -32 -216.5 -140t-209.5 -259
q-87 -144 -137.5 -313.5t-50.5 -316.5q0 -249 121 -295q82 -26 193.5 22t222 136t188.5 180q5 6 13 7t15 -5q6 -5 7 -13t-5 -15q-48 -58 -127 -129t-176 -133q-59 -38 -130 -68q-64 -27 -127 -30q-1 -5 -4 -10q-9 -14 -16 -27q16 1 29.5 -3.5t20.5 -15.5q3 -5 4.5 -15
t-8.5 -25q-11 -13 -22 -23t-19 -15t-9 -6q-5 -2 -10 -2q-10 0 -17 10q-4 7 -2 15t9 12q1 0 6 3.5t12.5 9.5t14.5 15q-8 1 -21 -1t-20 2.5t-9 8.5q-2 3 -3.5 11t3.5 24q4 13 16 32z" />
    <glyph glyph-name="Egrave" unicode="&#xc8;" horiz-adv-x="918" 
d="M323 -1q-39 0 -76 11q-169 57 -217 280q-30 165 31 335q69 188 229 314q134 104 279 59q-67 94 -61 180.5t52 146.5q43 58 98.5 81.5t102.5 4.5q33 -10 60 -65.5t5 -190.5q-2 -9 -8.5 -13.5t-14.5 -2.5q-9 1 -13.5 8t-2.5 15q30 177 -42 212q-34 14 -76.5 -6.5
t-76.5 -65.5q-15 -18 -32 -61.5t-9.5 -105t66.5 -133.5l41 -48q5 -6 5 -13t-5 -13t-12 -7t-13 3q-165 103 -319 -16q-115 -93 -173.5 -202t-73 -216t2.5 -192q42 -200 189 -250q187 -50 427 198l67 70q6 6 14 6t15 -5q6 -6 6 -14t-6 -15l-67 -70q-131 -137 -254 -189
q-72 -30 -138 -30v0zM774 1540q-7 0 -13 5l-47 42q-6 6 -6.5 14t4.5 14q6 6 14 6.5t14 -4.5l48 -42q6 -5 6.5 -13t-5.5 -15t-15 -7v0z" />
    <glyph glyph-name="Eacute" unicode="&#xc9;" horiz-adv-x="918" 
d="M323 -1q-39 0 -76 11q-169 57 -217 280q-30 165 31 335q69 188 229 314q134 104 279 59q-67 94 -61 180.5t52 146.5q43 58 98.5 81.5t102.5 4.5q33 -10 60 -65.5t5 -190.5q-2 -9 -8.5 -13.5t-14.5 -2.5q-9 1 -13.5 8t-2.5 15q30 177 -42 212q-34 14 -76.5 -6.5
t-76.5 -65.5q-15 -18 -32 -61.5t-9.5 -105t66.5 -133.5l41 -48q5 -6 5 -13t-5 -13t-12 -7t-13 3q-165 103 -319 -16q-115 -93 -173.5 -202t-73 -216t2.5 -192q42 -200 189 -250q187 -50 427 198l67 70q6 6 14 6t15 -5q6 -6 6 -14t-6 -15l-67 -70q-131 -137 -254 -189
q-72 -30 -138 -30v0zM715 1536q-11 0 -17 11q-4 8 -1.5 15.5t9.5 11.5l74 37q8 4 15.5 1.5t11.5 -10.5q3 -7 1 -14.5t-10 -11.5l-74 -38q-4 -2 -9 -2v0z" />
    <glyph glyph-name="Ecircumflex" unicode="&#xca;" horiz-adv-x="918" 
d="M323 -1q-39 0 -76 11q-169 57 -217 280q-30 165 31 335q69 188 229 314q134 104 279 59q-67 94 -61 180.5t52 146.5q43 58 98.5 81.5t102.5 4.5q33 -10 60 -65.5t5 -190.5q-2 -9 -8.5 -13.5t-14.5 -2.5q-9 1 -13.5 8t-2.5 15q30 177 -42 212q-34 14 -76.5 -6.5
t-76.5 -65.5q-15 -18 -32 -61.5t-9.5 -105t66.5 -133.5l41 -48q5 -6 5 -13t-5 -13t-12 -7t-13 3q-165 103 -319 -16q-115 -93 -173.5 -202t-73 -216t2.5 -192q42 -200 189 -250q187 -50 427 198l67 70q6 6 14 6t15 -5q6 -6 6 -14t-6 -15l-67 -70q-131 -137 -254 -189
q-72 -30 -138 -30v0zM792 1531h-2q-9 1 -14 7.5t-4 14.5q1 10 1 22q-17 -14 -35 -31q-6 -6 -14 -5.5t-14 6.5t-5.5 14t6.5 14q24 23 39.5 35.5t24.5 17t14.5 4.5t8.5 -1q12 -5 15 -18q1 -9 0.5 -22t-1 -24t-1.5 -16q-1 -7 -6.5 -12.5t-12.5 -5.5v0z" />
    <glyph glyph-name="Edieresis" unicode="&#xcb;" horiz-adv-x="918" 
d="M323 -1q-39 0 -76 11q-169 57 -217 280q-30 165 31 335q69 188 229 314q134 104 279 59q-67 94 -61 180.5t52 146.5q43 58 98.5 81.5t102.5 4.5q33 -10 60 -65.5t5 -190.5q-2 -9 -8.5 -13.5t-14.5 -2.5q-9 1 -13.5 8t-2.5 15q30 177 -42 212q-34 14 -76.5 -6.5
t-76.5 -65.5q-15 -18 -32 -61.5t-9.5 -105t66.5 -133.5l41 -48q5 -6 5 -13t-5 -13t-12 -7t-13 3q-165 103 -319 -16q-115 -93 -173.5 -202t-73 -216t2.5 -192q42 -200 189 -250q187 -50 427 198l67 70q6 6 14 6t15 -5q6 -6 6 -14t-6 -15l-67 -70q-131 -137 -254 -189
q-72 -30 -138 -30v0zM710 1554v0v0q-11 0 -19 8t-8 19t8 19.5t19 8.5t19 -8.5t8 -19.5t-8 -19t-19 -8zM817 1552v0v0q-11 0 -19 8t-8 20q0 11 8 19t19 8t19.5 -8t8.5 -19q0 -12 -8.5 -20t-19.5 -8z" />
    <glyph glyph-name="Igrave" unicode="&#xcc;" horiz-adv-x="609" 
d="M156 40q-3 -1 -6 -1h-2l-125 -12h-2q-8 0 -13.5 5t-6.5 13t4 14t14 7l117 12q15 36 78 186q77 185 176 432q86 212 137 345.5t75.5 206t32 102t6.5 34.5q0 2 -1 3.5t-2 1.5q-14 5 -65 -34.5t-134 -137.5q-82 -99 -148.5 -206t-99.5 -198.5t-14 -141.5q3 -8 0 -15.5
t-10 -10.5q-8 -4 -15.5 -1t-10.5 11q-37 87 57 274q81 158 210 314q32 39 76 84t87.5 75.5t75.5 25.5q7 -1 17 -8.5t16 -26.5q1 -3 1 -9.5t-3 -22.5t-11.5 -46t-26 -80t-45 -124t-68 -178.5t-96.5 -243.5q-101 -249 -179 -437q-51 -122 -71 -170l94 10q8 1 14 -4t7 -14
q1 -8 -4 -14.5t-13 -7.5zM700 1568q-7 0 -13 5l-47 41q-6 6 -6.5 14t4.5 15q6 6 14 6.5t14 -5.5l48 -41q6 -6 6.5 -14t-5.5 -14q-6 -7 -15 -7v0z" />
    <glyph glyph-name="Iacute" unicode="&#xcd;" horiz-adv-x="609" 
d="M156 40q-3 -1 -6 -1h-2l-125 -12h-2q-8 0 -13.5 5t-6.5 13t4 14t14 7l117 12q15 36 78 186q77 185 176 432q86 212 137 345.5t75.5 206t32 102t6.5 34.5q0 2 -1 3.5t-2 1.5q-14 5 -65 -34.5t-134 -137.5q-82 -99 -148.5 -206t-99.5 -198.5t-14 -141.5q3 -8 0 -15.5
t-10 -10.5q-8 -4 -15.5 -1t-10.5 11q-37 87 57 274q81 158 210 314q32 39 76 84t87.5 75.5t75.5 25.5q7 -1 17 -8.5t16 -26.5q1 -3 1 -9.5t-3 -22.5t-11.5 -46t-26 -80t-45 -124t-68 -178.5t-96.5 -243.5q-101 -249 -179 -437q-51 -122 -71 -170l94 10q8 1 14 -4t7 -14
q1 -8 -4 -14.5t-13 -7.5zM641 1564q-11 0 -17 11q-4 7 -1.5 15t9.5 12l74 37q8 3 15.5 0.5t11.5 -9.5q4 -8 1.5 -15.5t-10.5 -11.5l-74 -37q-4 -2 -9 -2v0z" />
    <glyph glyph-name="Icircumflex" unicode="&#xce;" horiz-adv-x="609" 
d="M156 40q-3 -1 -6 -1h-2l-125 -12h-2q-8 0 -13.5 5t-6.5 13t4 14t14 7l117 12q15 36 78 186q77 185 176 432q86 212 137 345.5t75.5 206t32 102t6.5 34.5q0 2 -1 3.5t-2 1.5q-14 5 -65 -34.5t-134 -137.5q-82 -99 -148.5 -206t-99.5 -198.5t-14 -141.5q3 -8 0 -15.5
t-10 -10.5q-8 -4 -15.5 -1t-10.5 11q-37 87 57 274q81 158 210 314q32 39 76 84t87.5 75.5t75.5 25.5q7 -1 17 -8.5t16 -26.5q1 -3 1 -9.5t-3 -22.5t-11.5 -46t-26 -80t-45 -124t-68 -178.5t-96.5 -243.5q-101 -249 -179 -437q-51 -122 -71 -170l94 10q8 1 14 -4t7 -14
q1 -8 -4 -14.5t-13 -7.5zM708 1559h-2q-9 1 -14 7t-4 15q1 10 1 22q-17 -15 -35 -31q-6 -6 -14 -6t-14 6q-6 7 -5.5 14.5t6.5 14.5q24 23 39.5 35t24.5 17t14.5 4.5t8.5 -1.5q12 -5 15 -18q1 -9 1 -22t-1 -24t-2 -15q0 -8 -6 -13t-13 -5v0z" />
    <glyph glyph-name="Idieresis" unicode="&#xcf;" horiz-adv-x="609" 
d="M156 40q-3 -1 -6 -1h-2l-125 -12h-2q-8 0 -13.5 5t-6.5 13t4 14t14 7l117 12q15 36 78 186q77 185 176 432q86 212 137 345.5t75.5 206t32 102t6.5 34.5q0 2 -1 3.5t-2 1.5q-14 5 -65 -34.5t-134 -137.5q-82 -99 -148.5 -206t-99.5 -198.5t-14 -141.5q3 -8 0 -15.5
t-10 -10.5q-8 -4 -15.5 -1t-10.5 11q-37 87 57 274q81 158 210 314q32 39 76 84t87.5 75.5t75.5 25.5q7 -1 17 -8.5t16 -26.5q1 -3 1 -9.5t-3 -22.5t-11.5 -46t-26 -80t-45 -124t-68 -178.5t-96.5 -243.5q-101 -249 -179 -437q-51 -122 -71 -170l94 10q8 1 14 -4t7 -14
q1 -8 -4 -14.5t-13 -7.5zM646 1581v0v0q-11 0 -19 8t-8 20q0 11 8 19t19 8t19 -8t8 -19q0 -12 -8 -20t-19 -8zM733 1580v0v0q-11 0 -19 8t-8 19q0 12 8 20t19 8t19.5 -8t8.5 -20q0 -11 -8.5 -19t-19.5 -8z" />
    <glyph glyph-name="Eth" unicode="&#xd0;" horiz-adv-x="1345" 
d="M385 479q-87 -8 -152 -41q-86 -44 -133 -108q-96 -137 -23 -249q61 -81 202 -88.5t337 60.5q183 66 331 242q-110 80 -248 136q-145 50 -259 50h-13q-5 -13 -9 -26l-105 -316q-6 -14 -19 -14q-3 0 -6 1q-8 3 -11.5 10t-1.5 15l106 317q2 5 4 11zM526 751
q-47 -120 -86 -231q129 0 273 -52q146 -59 259 -142q64 83 114 182q165 338 96 605q-43 135 -124 189t-160 61q-179 19 -362 -76t-286 -260q-4 -7 -12 -9t-15 2q-7 5 -9 12.5t2 15.5q104 170 303 275q201 102 384 80q244 -36 317 -279q73 -282 -98 -634q-52 -102 -117 -187
q53 -40 85 -67t35 -31q6 -6 6.5 -14t-5.5 -14t-13.5 -6.5t-14.5 5.5q-1 1 -33 28t-85 67q-156 -186 -351 -256q-199 -67 -321 -64q-120 3 -181.5 38.5t-81.5 67.5q-45 63 -39 142.5t62 154.5q88 114 245 152q42 9 85 12q39 112 86 233l-138 3q-8 0 -13.5 6t-5.5 14
q0 9 6 14.5t14 5.5l153 -3q4 11 8 21q72 181 127 311t59 139q4 7 11.5 10t15.5 0q7 -4 10 -11.5t0 -14.5q-4 -9 -59 -138.5t-127 -309.5q-2 -4 -3 -8l131 -2q9 -1 14.5 -6.5t5.5 -14.5q-1 -8 -6.5 -13.5t-13.5 -5.5h-1z" />
    <glyph glyph-name="Ntilde" unicode="&#xd1;" horiz-adv-x="1269" 
d="M21 61q-9 0 -16 8q-5 7 -4 15t8 13q175 134 289 312t191 381t140 411q31 98 63 196q2 8 8.5 11.5t14.5 1.5t12 -8t4 -14q-2 -8 -15 -136.5t-23.5 -317.5t-4.5 -379t42 -321q25 -82 54 -85h1v0q8 0 27.5 14t51.5 62.5t76 147.5q42 98 75.5 192.5t51.5 150.5l2 4
q3 10 10 32v1q21 72 69 207.5t119.5 279.5t163.5 241q7 6 14.5 6t14.5 -6q6 -6 6 -14t-6 -14q-89 -93 -159 -234t-116.5 -274t-67.5 -204q-7 -23 -10 -34l-2 -4q-101 -306 -179 -450.5t-141 -143.5h-1v0q-59 1 -92 113q-36 127 -43.5 304.5t1 358t21.5 317.5l-2 -8
q-1 -2 -2 -5q-64 -211 -142 -417t-195 -388t-297 -319q-6 -4 -12 -4v0zM1001 1539q-18 0 -25 11q-8 8 -9.5 19t0.5 20t4 14q3 8 10 11.5t15 0.5t11.5 -10t0.5 -15l-2 -10q15 5 36 13q69 30 93 15q12 -9 12 -23q0 -20 -3 -35q-3 -19 -21.5 -15t-17.5 17.5t2 20.5
q-11 -3 -25.5 -8t-25.5 -9q-22 -9 -38 -14q-10 -3 -17 -3v0z" />
    <glyph glyph-name="Ograve" unicode="&#xd2;" horiz-adv-x="969" 
d="M153 657q-130 -348 -50 -534q31 -65 86 -84q75 -24 171.5 30.5t197.5 176.5q115 143 194.5 324t97 356.5t-51.5 304.5q-103 168 -297 126q-84 -20 -163 -80.5t-133 -154.5t-62 -215q-4 -74 13 -140q57 118 118.5 200t112.5 130q65 61 106.5 89.5t45.5 28.5q7 4 15 1.5
t12 -9.5q3 -8 1 -15.5t-10 -11.5q-2 0 -42 -27t-101 -86q-54 -50 -118 -138.5t-122 -218.5q40 -98 96.5 -160t94.5 -79q8 -3 11 -10.5t-1 -15.5q-3 -8 -10.5 -11t-15.5 1q-39 16 -95 73.5t-101 148.5zM225 -8q-25 1 -48 9q-72 24 -111 105q-88 207 56 584q5 10 9 21
q-33 89 -28 199q9 130 67.5 232t144.5 167t177 87q223 48 340 -145q66 -124 61.5 -263t-38.5 -252q-83 -285 -266 -515q-196 -235 -364 -229zM714 1540q-7 0 -13 5l-47 42q-6 6 -6.5 14t4.5 14q6 6 14 6.5t14 -4.5l48 -42q6 -5 6.5 -13t-5.5 -15t-15 -7v0z" />
    <glyph glyph-name="Oacute" unicode="&#xd3;" horiz-adv-x="969" 
d="M153 657q-130 -348 -50 -534q31 -65 86 -84q75 -24 171.5 30.5t197.5 176.5q115 143 194.5 324t97 356.5t-51.5 304.5q-103 168 -297 126q-84 -20 -163 -80.5t-133 -154.5t-62 -215q-4 -74 13 -140q57 118 118.5 200t112.5 130q65 61 106.5 89.5t45.5 28.5q7 4 15 1.5
t12 -9.5q3 -8 1 -15.5t-10 -11.5q-2 0 -42 -27t-101 -86q-54 -50 -118 -138.5t-122 -218.5q40 -98 96.5 -160t94.5 -79q8 -3 11 -10.5t-1 -15.5q-3 -8 -10.5 -11t-15.5 1q-39 16 -95 73.5t-101 148.5zM225 -8q-25 1 -48 9q-72 24 -111 105q-88 207 56 584q5 10 9 21
q-33 89 -28 199q9 130 67.5 232t144.5 167t177 87q223 48 340 -145q66 -124 61.5 -263t-38.5 -252q-83 -285 -266 -515q-196 -235 -364 -229zM615 1536q-11 0 -17 11q-4 8 -1.5 15.5t9.5 11.5l74 37q8 4 15.5 1.5t11.5 -10.5q3 -7 1 -14.5t-10 -11.5l-74 -38q-4 -2 -9 -2v0z
" />
    <glyph glyph-name="Ocircumflex" unicode="&#xd4;" horiz-adv-x="969" 
d="M153 657q-130 -348 -50 -534q31 -65 86 -84q75 -24 171.5 30.5t197.5 176.5q115 143 194.5 324t97 356.5t-51.5 304.5q-103 168 -297 126q-84 -20 -163 -80.5t-133 -154.5t-62 -215q-4 -74 13 -140q57 118 118.5 200t112.5 130q65 61 106.5 89.5t45.5 28.5q7 4 15 1.5
t12 -9.5q3 -8 1 -15.5t-10 -11.5q-2 0 -42 -27t-101 -86q-54 -50 -118 -138.5t-122 -218.5q40 -98 96.5 -160t94.5 -79q8 -3 11 -10.5t-1 -15.5q-3 -8 -10.5 -11t-15.5 1q-39 16 -95 73.5t-101 148.5zM225 -8q-25 1 -48 9q-72 24 -111 105q-88 207 56 584q5 10 9 21
q-33 89 -28 199q9 130 67.5 232t144.5 167t177 87q223 48 340 -145q66 -124 61.5 -263t-38.5 -252q-83 -285 -266 -515q-196 -235 -364 -229zM682 1531h-2q-9 1 -14 7.5t-4 14.5q1 10 1 22q-17 -14 -35 -31q-6 -6 -14 -5.5t-14 6.5t-5.5 14t6.5 14q24 23 39.5 35.5t24.5 17
t14.5 4.5t8.5 -1q12 -5 15 -18q1 -9 0.5 -22t-1 -24t-1.5 -16q-1 -7 -6.5 -12.5t-12.5 -5.5v0z" />
    <glyph glyph-name="Otilde" unicode="&#xd5;" horiz-adv-x="969" 
d="M153 657q-130 -348 -50 -534q31 -65 86 -84q75 -24 171.5 30.5t197.5 176.5q115 143 194.5 324t97 356.5t-51.5 304.5q-103 168 -297 126q-84 -20 -163 -80.5t-133 -154.5t-62 -215q-4 -74 13 -140q57 118 118.5 200t112.5 130q65 61 106.5 89.5t45.5 28.5q7 4 15 1.5
t12 -9.5q3 -8 1 -15.5t-10 -11.5q-2 0 -42 -27t-101 -86q-54 -50 -118 -138.5t-122 -218.5q40 -98 96.5 -160t94.5 -79q8 -3 11 -10.5t-1 -15.5q-3 -8 -10.5 -11t-15.5 1q-39 16 -95 73.5t-101 148.5zM225 -8q-25 1 -48 9q-72 24 -111 105q-88 207 56 584q5 10 9 21
q-33 89 -28 199q9 130 67.5 232t144.5 167t177 87q223 48 340 -145q66 -124 61.5 -263t-38.5 -252q-83 -285 -266 -515q-196 -235 -364 -229zM601 1539q-18 0 -25 11q-8 8 -9.5 19t0.5 20t4 14q3 8 10 11.5t15 0.5t11.5 -10t0.5 -15l-2 -10q15 5 36 13q69 30 93 15
q12 -9 12 -23q0 -20 -3 -35q-3 -19 -21.5 -15t-17.5 17.5t2 20.5q-11 -3 -25.5 -8t-25.5 -9q-22 -9 -38 -14q-10 -3 -17 -3v0z" />
    <glyph glyph-name="Odieresis" unicode="&#xd6;" horiz-adv-x="969" 
d="M153 657q-130 -348 -50 -534q31 -65 86 -84q75 -24 171.5 30.5t197.5 176.5q115 143 194.5 324t97 356.5t-51.5 304.5q-103 168 -297 126q-84 -20 -163 -80.5t-133 -154.5t-62 -215q-4 -74 13 -140q57 118 118.5 200t112.5 130q65 61 106.5 89.5t45.5 28.5q7 4 15 1.5
t12 -9.5q3 -8 1 -15.5t-10 -11.5q-2 0 -42 -27t-101 -86q-54 -50 -118 -138.5t-122 -218.5q40 -98 96.5 -160t94.5 -79q8 -3 11 -10.5t-1 -15.5q-3 -8 -10.5 -11t-15.5 1q-39 16 -95 73.5t-101 148.5zM225 -8q-25 1 -48 9q-72 24 -111 105q-88 207 56 584q5 10 9 21
q-33 89 -28 199q9 130 67.5 232t144.5 167t177 87q223 48 340 -145q66 -124 61.5 -263t-38.5 -252q-83 -285 -266 -515q-196 -235 -364 -229zM630 1554v0v0q-11 0 -19 8t-8 19t8 19.5t19 8.5t19 -8.5t8 -19.5t-8 -19t-19 -8zM737 1552v0v0q-11 0 -19 8t-8 20q0 11 8 19t19 8
t19.5 -8t8.5 -19q0 -12 -8.5 -20t-19.5 -8z" />
    <glyph glyph-name="multiply" unicode="&#xd7;" horiz-adv-x="522" 
d="M43 419q-3 1 -5 3q-5 7 -5 15t6 14l326 308q6 6 14 5.5t14 -6.5t6 -14t-6 -14l-326 -309q-13 -9 -24 -2v0zM318 400v0l-207 357q-5 7 -2.5 14.5t9.5 12.5q7 4 15 2t12 -9l207 -357q4 -7 2 -14.5t-9 -12.5q-7 -4 -15 -2t-12 9v0z" />
    <glyph glyph-name="Oslash" unicode="&#xd8;" horiz-adv-x="969" 
d="M225 -8q-25 1 -48 9q-72 24 -111 105q-88 207 56 584q5 10 9 21q-33 89 -28 199q9 130 67.5 232t144.5 167t177 87q223 48 340 -145q66 -124 61.5 -263t-38.5 -252q-83 -285 -266 -515q-196 -235 -364 -229v0zM153 657q-130 -348 -50 -534q31 -65 86 -84
q75 -24 171.5 30.5t197.5 176.5q115 143 194.5 324t97 356.5t-51.5 304.5q-103 168 -297 126q-84 -20 -163 -80.5t-133 -154.5t-62 -215q-4 -74 13 -140q57 118 118.5 200t112.5 130q65 61 106.5 89.5t45.5 28.5q7 4 15 1.5t12 -9.5q3 -8 1 -15.5t-10 -11.5q-2 0 -42 -27
t-101 -86q-54 -50 -118 -138.5t-122 -218.5q40 -98 96.5 -160t94.5 -79q8 -3 11 -10.5t-1 -15.5q-3 -8 -10.5 -11t-15.5 1q-39 16 -95 73.5t-101 148.5v0zM-2 4q-5 0 -10 3q-7 5 -8.5 12.5t2.5 15.5l881 1353q5 7 12.5 8.5t15.5 -2.5q7 -5 8.5 -13t-3.5 -15l-880 -1353
q-8 -10 -18 -9v0z" />
    <glyph glyph-name="Ugrave" unicode="&#xd9;" horiz-adv-x="959" 
d="M609 -56q-8 0 -15 5q-25 15 -20 89q6 91 51 276q41 163 112 363.5t142 380.5q-102 -184 -227 -393.5t-246.5 -378t-209.5 -230.5q-99 -65 -150 -13q-54 54 -31 246q19 162 87 395q65 220 142 411.5t140 285.5q5 7 12.5 8.5t15.5 -2.5q6 -5 7.5 -13t-2.5 -15
q-60 -91 -137 -281.5t-140 -405.5q-70 -241 -87 -400t22 -201q28 -28 99 19q86 60 209 233.5t252.5 391.5t234.5 410t154 288q4 8 11 10.5t15 -1.5q7 -3 10 -10.5t0 -15.5q-6 -12 -83 -199.5t-169 -438.5t-144 -453q-28 -117 -39 -184t-11.5 -97.5t2.5 -37.5q10 0 16 -8
q5 -7 4 -15t-8 -13q-8 -6 -19 -6v0zM584 -73v0v-1v1zM824 1541q-7 0 -14 5l-47 41q-6 6 -6.5 14t4.5 14q6 7 14 7.5t14 -5.5l48 -41q6 -6 6.5 -14t-4.5 -15q-7 -6 -15 -6v0z" />
    <glyph glyph-name="Uacute" unicode="&#xda;" horiz-adv-x="959" 
d="M609 -56q-8 0 -15 5q-25 15 -20 89q6 91 51 276q41 163 112 363.5t142 380.5q-102 -184 -227 -393.5t-246.5 -378t-209.5 -230.5q-99 -65 -150 -13q-54 54 -31 246q19 162 87 395q65 220 142 411.5t140 285.5q5 7 12.5 8.5t15.5 -2.5q6 -5 7.5 -13t-2.5 -15
q-60 -91 -137 -281.5t-140 -405.5q-70 -241 -87 -400t22 -201q28 -28 99 19q86 60 209 233.5t252.5 391.5t234.5 410t154 288q4 8 11 10.5t15 -1.5q7 -3 10 -10.5t0 -15.5q-6 -12 -83 -199.5t-169 -438.5t-144 -453q-28 -117 -39 -184t-11.5 -97.5t2.5 -37.5q10 0 16 -8
q5 -7 4 -15t-8 -13q-8 -6 -19 -6v0zM584 -73v0v-1v1zM795 1542q-11 0 -18 11q-4 8 -1.5 15.5t10.5 11.5l73 37q8 4 15.5 1.5t11.5 -10.5q4 -7 1.5 -14.5t-10.5 -11.5l-73 -38q-5 -2 -9 -2v0z" />
    <glyph glyph-name="Ucircumflex" unicode="&#xdb;" horiz-adv-x="959" 
d="M609 -56q-8 0 -15 5q-25 15 -20 89q6 91 51 276q41 163 112 363.5t142 380.5q-102 -184 -227 -393.5t-246.5 -378t-209.5 -230.5q-99 -65 -150 -13q-54 54 -31 246q19 162 87 395q65 220 142 411.5t140 285.5q5 7 12.5 8.5t15.5 -2.5q6 -5 7.5 -13t-2.5 -15
q-60 -91 -137 -281.5t-140 -405.5q-70 -241 -87 -400t22 -201q28 -28 99 19q86 60 209 233.5t252.5 391.5t234.5 410t154 288q4 8 11 10.5t15 -1.5q7 -3 10 -10.5t0 -15.5q-6 -12 -83 -199.5t-169 -438.5t-144 -453q-28 -117 -39 -184t-11.5 -97.5t2.5 -37.5q10 0 16 -8
q5 -7 4 -15t-8 -13q-8 -6 -19 -6v0zM584 -73v0v-1v1zM828 1532h-2q-8 1 -13 7.5t-5 14.5q1 10 2 22q-18 -14 -35 -31q-6 -6 -14 -5.5t-14 6.5t-6 14t6 14q24 23 40 35.5t25 17t14 4.5t9 -2q12 -4 15 -18q1 -8 0.5 -21t-1 -24.5t-1.5 -15.5q-1 -7 -6.5 -12.5t-13.5 -5.5v0z
" />
    <glyph glyph-name="Udieresis" unicode="&#xdc;" horiz-adv-x="959" 
d="M609 -56q-8 0 -15 5q-25 15 -20 89q6 91 51 276q41 163 112 363.5t142 380.5q-102 -184 -227 -393.5t-246.5 -378t-209.5 -230.5q-99 -65 -150 -13q-54 54 -31 246q19 162 87 395q65 220 142 411.5t140 285.5q5 7 12.5 8.5t15.5 -2.5q6 -5 7.5 -13t-2.5 -15
q-60 -91 -137 -281.5t-140 -405.5q-70 -241 -87 -400t22 -201q28 -28 99 19q86 60 209 233.5t252.5 391.5t234.5 410t154 288q4 8 11 10.5t15 -1.5q7 -3 10 -10.5t0 -15.5q-6 -12 -83 -199.5t-169 -438.5t-144 -453q-28 -117 -39 -184t-11.5 -97.5t2.5 -37.5q10 0 16 -8
q5 -7 4 -15t-8 -13q-8 -6 -19 -6v0zM584 -73v0v-1v1zM775 1549v0v0q-12 0 -20 8t-8 19q0 12 8 20t20 8q11 0 19 -8t8 -20q0 -11 -8 -19t-19 -8zM872 1548v0v0q-11 0 -19 8t-8 19q0 12 8 20t19 8t19 -8t8 -20q0 -11 -8 -19t-19 -8z" />
    <glyph glyph-name="Yacute" unicode="&#xdd;" horiz-adv-x="1061" 
d="M156 -89q-49 0 -82 17.5t-50.5 35t-18.5 20.5q-5 7 -4 15t8 13t15 3.5t13 -8.5q1 -2 16 -16.5t43.5 -27.5t70.5 -11q323 22 593 515q85 157 152.5 326.5t118.5 322.5q-63 -123 -147 -264t-180 -268q-113 -149 -237 -219q-125 -68 -206 -26q-29 14 -53.5 58.5t-20 137
t61.5 249.5q50 135 108 270t99.5 226.5t44.5 97.5q4 7 11.5 10t15.5 -1q7 -3 10 -10.5t-1 -15.5q-2 -5 -44 -96.5t-99.5 -226t-107.5 -268.5q-58 -157 -59.5 -260.5t53.5 -135.5q58 -31 165 25t227 209q121 163 222 341.5t162.5 305.5t64.5 135t10 10.5t15 0.5q8 -3 11 -10
t1 -15q-12 -36 -25 -76v-2q-57 -182 -141 -411t-200.5 -446t-270.5 -364t-352 -165q-7 -1 -13 -1zM855 1542q-11 0 -18 11q-4 8 -1.5 15.5t10.5 11.5l73 37q8 4 15.5 1.5t11.5 -10.5q4 -7 1.5 -14.5t-10.5 -11.5l-73 -38q-5 -2 -9 -2v0z" />
    <glyph glyph-name="Thorn" unicode="&#xde;" horiz-adv-x="845" 
d="M153 444l-112 -359q-7 -14 -19 -14h-6q-8 3 -12 10t-1 15l110 354q-27 5 -45 9q-32 8 -34 9q-8 3 -11.5 10t-0.5 15t10 11.5t15 1.5q1 -3 71 -16q3 -1 7 -2l221 713q-32 -7 -64 -19q-57 -23 -91 -46t-35 -25q-6 -6 -14 -5.5t-14 6.5q-5 7 -4.5 15t6.5 14q2 3 38.5 28
t98.5 50q47 18 92 24l65 208q3 8 10 12t15 1t12 -10t1 -15l-60 -192q95 4 184 -40q160 -81 182 -262q7 -74 -6 -138.5t-32 -104.5q-25 -54 -81 -115t-137.5 -105.5t-183.5 -46.5h-8q-95 0 -157 8q-5 1 -10 1zM390 1207l-225 -724q64 -7 163 -8q88 2 162 41t127 95t77 108
q17 36 28.5 95t5.5 126q-18 161 -159 231q-87 43 -179 36z" />
    <glyph glyph-name="germandbls" unicode="&#xdf;" horiz-adv-x="874" 
d="M395 7q-56 0 -103 28q-45 30 -63.5 72.5t-20 85.5t4 73t6.5 34q3 8 10 12t15 2t12 -9t2 -15q-1 -2 -5.5 -27t-4 -61.5t14.5 -72.5t50 -60q104 -58 240 37q94 68 151.5 192.5t25.5 274.5q-23 82 -66 135.5t-84 89.5q-28 26 -45 47t-13 42q4 18 19 29t32 17
q99 44 131 130.5t20 168.5q-10 72 -42 119t-74 53q-20 4 -58 -14t-89 -87t-108 -217q-27 -74 -77.5 -233t-104 -336t-91 -303.5t-40.5 -134.5q-2 -8 -9 -12t-15 -2q-8 3 -12 10t-2 15q3 9 40.5 135.5t91 304t104 337t78.5 234.5q70 183 149 270q46 49 83.5 63t63.5 9
q58 -8 98.5 -63t53.5 -142q14 -94 -24 -192.5t-152 -149.5q-7 -3 -12 -5.5t-8 -4.5t-4.5 -3.5l-2 -2l-0.5 -0.5q0 -4 7.5 -13t18 -20t20.5 -20q42 -36 89.5 -95t72.5 -149q35 -164 -27.5 -299.5t-164.5 -209.5q-95 -67 -182 -67v0z" />
    <glyph glyph-name="agrave" unicode="&#xe0;" horiz-adv-x="491" 
d="M-66 418q-10 0 -18 3t-17 15.5t-9 39.5q4 63 53.5 143.5t117.5 108.5q23 9 53 4.5t62 -38.5q20 26 32 43t13 17q4 7 11.5 8.5t14.5 -2.5t9 -11t-1 -14q-45 -109 -47.5 -164t18.5 -66q30 -17 99.5 25.5t151.5 141.5q5 7 13 8t15 -5q6 -5 7 -13t-4 -15q-151 -181 -263 -187
q-23 0 -40 11q-23 11 -34 48t6 111q-50 -64 -106 -122q-91 -91 -137 -90v0zM-67 458v0h3.5t11.5 3.5t20.5 11.5t30.5 23.5t43 40.5q58 59 109 125l-4 4q-29 34 -64 27q-45 -12 -86 -66.5t-60 -114.5q-8 -28 -7 -40.5t3 -13.5v0v0zM176 877q-7 0 -13 5l-47 41q-7 6 -7.5 14
t5.5 15q6 6 13.5 6.5t14.5 -5.5l47 -41q7 -6 7.5 -14t-5.5 -14q-7 -7 -15 -7v0z" />
    <glyph glyph-name="aacute" unicode="&#xe1;" horiz-adv-x="491" 
d="M-66 418q-10 0 -18 3t-17 15.5t-9 39.5q4 63 53.5 143.5t117.5 108.5q23 9 53 4.5t62 -38.5q20 26 32 43t13 17q4 7 11.5 8.5t14.5 -2.5t9 -11t-1 -14q-45 -109 -47.5 -164t18.5 -66q30 -17 99.5 25.5t151.5 141.5q5 7 13 8t15 -5q6 -5 7 -13t-4 -15q-151 -181 -263 -187
q-23 0 -40 11q-23 11 -34 48t6 111q-50 -64 -106 -122q-91 -91 -137 -90v0zM-67 458v0h3.5t11.5 3.5t20.5 11.5t30.5 23.5t43 40.5q58 59 109 125l-4 4q-29 34 -64 27q-45 -12 -86 -66.5t-60 -114.5q-8 -28 -7 -40.5t3 -13.5v0v0zM67 873q-11 0 -18 11q-3 7 -0.5 15t9.5 12
l74 37q7 3 15 0.5t12 -9.5q3 -8 0.5 -15.5t-9.5 -11.5l-74 -37q-4 -2 -9 -2v0z" />
    <glyph glyph-name="acircumflex" unicode="&#xe2;" horiz-adv-x="491" 
d="M-66 418q-10 0 -18 3t-17 15.5t-9 39.5q4 63 53.5 143.5t117.5 108.5q23 9 53 4.5t62 -38.5q20 26 32 43t13 17q4 7 11.5 8.5t14.5 -2.5t9 -11t-1 -14q-45 -109 -47.5 -164t18.5 -66q30 -17 99.5 25.5t151.5 141.5q5 7 13 8t15 -5q6 -5 7 -13t-4 -15q-151 -181 -263 -187
q-23 0 -40 11q-23 11 -34 48t6 111q-50 -64 -106 -122q-91 -91 -137 -90v0zM-67 458v0h3.5t11.5 3.5t20.5 11.5t30.5 23.5t43 40.5q58 59 109 125l-4 4q-29 34 -64 27q-45 -12 -86 -66.5t-60 -114.5q-8 -28 -7 -40.5t3 -13.5v0v0zM163 868h-2q-8 1 -13 7t-5 15q1 10 2 22
q-18 -15 -35 -31q-6 -6 -14 -6t-14 6q-6 7 -6 14.5t6 14.5q24 23 40 35.5t25 17t14 4t9 -1.5q12 -5 15 -18q1 -9 0.5 -22t-1 -24t-1.5 -15q-1 -8 -6.5 -13t-13.5 -5v0z" />
    <glyph glyph-name="atilde" unicode="&#xe3;" horiz-adv-x="491" 
d="M-66 418q-10 0 -18 3t-17 15.5t-9 39.5q4 63 53.5 143.5t117.5 108.5q23 9 53 4.5t62 -38.5q20 26 32 43t13 17q4 7 11.5 8.5t14.5 -2.5t9 -11t-1 -14q-45 -109 -47.5 -164t18.5 -66q30 -17 99.5 25.5t151.5 141.5q5 7 13 8t15 -5q6 -5 7 -13t-4 -15q-151 -181 -263 -187
q-23 0 -40 11q-23 11 -34 48t6 111q-50 -64 -106 -122q-91 -91 -137 -90v0zM-67 458v0h3.5t11.5 3.5t20.5 11.5t30.5 23.5t43 40.5q58 59 109 125l-4 4q-29 34 -64 27q-45 -12 -86 -66.5t-60 -114.5q-8 -28 -7 -40.5t3 -13.5v0v0zM83 876q-19 0 -25 10q-8 9 -9.5 19.5
t0.5 20t3 13.5q3 8 10.5 11.5t15.5 1.5q8 -3 11.5 -10.5t0.5 -15.5q-1 -4 -2 -9q15 5 35 13q69 30 94 15q12 -9 12 -23q0 -20 -3 -35q-4 -19 -22 -15t-17 17t1 20q-11 -2 -25 -7.5t-25 -9.5q-22 -8 -39 -13q-9 -3 -16 -3v0z" />
    <glyph glyph-name="adieresis" unicode="&#xe4;" horiz-adv-x="491" 
d="M-66 418q-10 0 -18 3t-17 15.5t-9 39.5q4 63 53.5 143.5t117.5 108.5q23 9 53 4.5t62 -38.5q20 26 32 43t13 17q4 7 11.5 8.5t14.5 -2.5t9 -11t-1 -14q-45 -109 -47.5 -164t18.5 -66q30 -17 99.5 25.5t151.5 141.5q5 7 13 8t15 -5q6 -5 7 -13t-4 -15q-151 -181 -263 -187
q-23 0 -40 11q-23 11 -34 48t6 111q-50 -64 -106 -122q-91 -91 -137 -90v0zM-67 458v0h3.5t11.5 3.5t20.5 11.5t30.5 23.5t43 40.5q58 59 109 125l-4 4q-29 34 -64 27q-45 -12 -86 -66.5t-60 -114.5q-8 -28 -7 -40.5t3 -13.5v0v0zM111 860v0v0q-11 0 -19 8t-8 20q0 11 8 19
t19 8q12 0 20 -8t8 -19q0 -12 -8 -20t-20 -8zM189 859v0v0q-12 0 -20 8t-8 20q0 11 8 19t20 8q11 0 19 -8t8 -19q0 -12 -8 -20t-19 -8z" />
    <glyph glyph-name="aring" unicode="&#xe5;" horiz-adv-x="491" 
d="M-66 418q-10 0 -18 3t-17 15.5t-9 39.5q4 63 53.5 143.5t117.5 108.5q23 9 53 4.5t62 -38.5q20 26 32 43t13 17q4 7 11.5 8.5t14.5 -2.5t9 -11t-1 -14q-45 -109 -47.5 -164t18.5 -66q30 -17 99.5 25.5t151.5 141.5q5 7 13 8t15 -5q6 -5 7 -13t-4 -15q-151 -181 -263 -187
q-23 0 -40 11q-23 11 -34 48t6 111q-50 -64 -106 -122q-91 -91 -137 -90v0zM-67 458v0h3.5t11.5 3.5t20.5 11.5t30.5 23.5t43 40.5q58 59 109 125l-4 4q-29 34 -64 27q-45 -12 -86 -66.5t-60 -114.5q-8 -28 -7 -40.5t3 -13.5v0v0zM147 860q-23 0 -39.5 16.5t-16.5 39.5
t16.5 39.5t39.5 16.5t39.5 -16.5t16.5 -39.5t-16.5 -39.5t-39.5 -16.5v0zM147 939q-10 0 -17 -7t-7 -16q0 -10 7 -17t17 -7q9 0 16 7t7 17q0 9 -7 16t-16 7v0z" />
    <glyph glyph-name="ae" unicode="&#xe6;" horiz-adv-x="1454" 
d="M1289 419v0q46 -1 137 90q55 57 105 121q-24 -94 3 -137q18 -29 55 -32q9 0 15 5t7 14q0 8 -5.5 14t-13.5 7q-11 1 -16.5 5t-7.5 8q-6 7 -8 30t8 69t42 123q3 7 0.5 14t-8.5 11q-7 4 -14.5 2t-12.5 -8q0 -1 -12 -17.5t-33 -43.5q-31 34 -61 39t-53 -4
q-68 -29 -117.5 -109t-53.5 -143q0 -27 9 -39.5t17 -15.5t18 -3zM1287 459v0v0q-1 1 -2 13.5t7 39.5q19 60 60 114.5t86 67.5q34 7 63 -27q2 -3 5 -4q-51 -66 -109 -126q-25 -24 -43 -39.5t-31 -24t-20.5 -11.5t-11 -3.5t-3.5 0.5h-1zM1663 427v0h10q103 11 179 80.5
t124 142.5q5 7 3.5 15t-7.5 13q-8 5 -15.5 3.5t-12.5 -8.5q-140 -198 -274 -206q-58 -4 -67 47q-8 54 24 118q7 -3 22.5 -7.5t34 -6.5t35.5 3q32 12 44 39.5t4 53.5q-6 20 -25 30.5t-49 1.5q-66 -25 -103 -99.5t-27 -140.5q17 -78 100 -79zM1650 666v0q24 31 55 42
q10 3 15 2t7 -3.5t2 -4.5q4 -11 -1.5 -24t-21.5 -19q-10 -3 -26 -0.5t-30 7.5z" />
    <glyph glyph-name="ccedilla" unicode="&#xe7;" horiz-adv-x="272" 
d="M-44 402q-7 1 -13 4q-43 20 -33 100q13 80 61.5 148.5t97.5 89.5q21 7 34 4t19 -9q30 -25 13 -105q-2 -9 -8.5 -13t-14.5 -3q-9 2 -13.5 8.5t-2.5 15.5q3 16 4 28t0.5 19.5t-1.5 11.5t-2 6h-1v1q-2 2 -13 -1q-36 -16 -78.5 -75t-54.5 -131q-6 -50 10 -59q11 -5 43.5 8
t86.5 53q90 69 165 156q6 7 14 7.5t15 -5.5q6 -5 6.5 -13t-4.5 -15q-79 -90 -172 -162q-64 -49 -109 -63q-9 -14 -15 -27q15 1 28.5 -3.5t20.5 -15.5q4 -5 5 -15t-9 -25q-10 -13 -21.5 -23t-19.5 -15t-9 -6q-4 -2 -9 -2q-11 0 -18 10q-4 7 -2 15t10 12q1 0 1 1h1l3 3
q5 3 12.5 9t15.5 15q-9 1 -22 -1t-19.5 2.5t-8.5 8.5q-3 3 -4.5 11t4.5 24q2 7 7 16z" />
    <glyph glyph-name="egrave" unicode="&#xe8;" horiz-adv-x="337" 
d="M41 422q-83 1 -100 80q-11 65 27 140q41 78 103 99q30 9 49 -1.5t25 -29.5q8 -26 -4.5 -54t-43.5 -40q-17 -5 -35.5 -3t-34 6.5t-22.5 7.5q-33 -63 -25 -118q10 -51 68 -47q134 8 273 206q6 7 13.5 8.5t14.5 -3.5t8.5 -13t-3.5 -15q-48 -73 -124 -142.5t-179 -80.5h-10v0
zM28 662q14 -5 30 -7.5t26 -0.5q15 6 21 19.5t2 23.5q0 2 -2 4.5t-7 3.5t-15 -2q-31 -11 -55 -41v0zM116 877q-7 0 -13 5l-47 41q-7 6 -7.5 14t5.5 15q6 6 13.5 6.5t14.5 -5.5l47 -41q7 -6 7.5 -14t-5.5 -14q-7 -7 -15 -7v0z" />
    <glyph glyph-name="eacute" unicode="&#xe9;" horiz-adv-x="337" 
d="M41 422q-83 1 -100 80q-11 65 27 140q41 78 103 99q30 9 49 -1.5t25 -29.5q8 -26 -4.5 -54t-43.5 -40q-17 -5 -35.5 -3t-34 6.5t-22.5 7.5q-33 -63 -25 -118q10 -51 68 -47q134 8 273 206q6 7 13.5 8.5t14.5 -3.5t8.5 -13t-3.5 -15q-48 -73 -124 -142.5t-179 -80.5h-10v0
zM28 662q14 -5 30 -7.5t26 -0.5q15 6 21 19.5t2 23.5q0 2 -2 4.5t-7 3.5t-15 -2q-31 -11 -55 -41v0zM67 873q-11 0 -18 11q-3 7 -0.5 15t9.5 12l74 37q7 3 15 0.5t12 -9.5q3 -8 0.5 -15.5t-9.5 -11.5l-74 -37q-4 -2 -9 -2v0z" />
    <glyph glyph-name="ecircumflex" unicode="&#xea;" horiz-adv-x="337" 
d="M41 422q-83 1 -100 80q-11 65 27 140q41 78 103 99q30 9 49 -1.5t25 -29.5q8 -26 -4.5 -54t-43.5 -40q-17 -5 -35.5 -3t-34 6.5t-22.5 7.5q-33 -63 -25 -118q10 -51 68 -47q134 8 273 206q6 7 13.5 8.5t14.5 -3.5t8.5 -13t-3.5 -15q-48 -73 -124 -142.5t-179 -80.5h-10v0
zM28 662q14 -5 30 -7.5t26 -0.5q15 6 21 19.5t2 23.5q0 2 -2 4.5t-7 3.5t-15 -2q-31 -11 -55 -41v0zM143 868h-2q-8 1 -13 7t-5 15q1 10 2 22q-18 -15 -35 -31q-6 -6 -14 -6t-14 6q-6 7 -6 14.5t6 14.5q24 23 40 35.5t25 17t14 4t9 -1.5q12 -5 15 -18q1 -9 0.5 -22t-1 -24
t-1.5 -15q-1 -8 -6.5 -13t-13.5 -5v0z" />
    <glyph glyph-name="edieresis" unicode="&#xeb;" horiz-adv-x="337" 
d="M41 422q-83 1 -100 80q-11 65 27 140q41 78 103 99q30 9 49 -1.5t25 -29.5q8 -26 -4.5 -54t-43.5 -40q-17 -5 -35.5 -3t-34 6.5t-22.5 7.5q-33 -63 -25 -118q10 -51 68 -47q134 8 273 206q6 7 13.5 8.5t14.5 -3.5t8.5 -13t-3.5 -15q-48 -73 -124 -142.5t-179 -80.5h-10v0
zM28 662q14 -5 30 -7.5t26 -0.5q15 6 21 19.5t2 23.5q0 2 -2 4.5t-7 3.5t-15 -2q-31 -11 -55 -41v0zM71 850v0v0q-11 0 -19 8t-8 20q0 11 8 19t19 8q12 0 20 -8t8 -19q0 -12 -8 -20t-20 -8zM149 849v0v0q-12 0 -20 8t-8 20q0 11 8 19t20 8q11 0 19 -8t8 -19q0 -12 -8 -20
t-19 -8z" />
    <glyph glyph-name="igrave" unicode="&#xec;" horiz-adv-x="258" 
d="M-28 429q-18 0 -31 9q-16 14 -18.5 34.5t1 40t7.5 30.5q22 74 93 201q4 7 12 9.5t15 -1.5q7 -5 9.5 -12.5t-1.5 -15.5q-19 -33 -33.5 -61.5t-25 -51.5t-17.5 -41t-11.5 -32.5t-7 -25t-3 -18t0 -12t1.5 -7t1.5 -4l0.5 -1.5l1.5 -0.5t4 -0.5t7.5 0.5t12 2.5t16.5 6.5
t22 11.5t28.5 18q82 56 186 161q6 6 14 6t15 -5q6 -7 6 -15t-6 -14q-35 -36 -89.5 -85t-111.5 -87t-99 -40v0zM126 877q-7 0 -13 5l-47 41q-7 6 -7.5 14t5.5 15q6 6 13.5 6.5t14.5 -5.5l47 -41q7 -6 7.5 -14t-5.5 -14q-7 -7 -15 -7v0z" />
    <glyph glyph-name="iacute" unicode="&#xed;" horiz-adv-x="258" 
d="M-28 429q-18 0 -31 9q-16 14 -18.5 34.5t1 40t7.5 30.5q22 74 93 201q4 7 12 9.5t15 -1.5q7 -5 9.5 -12.5t-1.5 -15.5q-19 -33 -33.5 -61.5t-25 -51.5t-17.5 -41t-11.5 -32.5t-7 -25t-3 -18t0 -12t1.5 -7t1.5 -4l0.5 -1.5l1.5 -0.5t4 -0.5t7.5 0.5t12 2.5t16.5 6.5
t22 11.5t28.5 18q82 56 186 161q6 6 14 6t15 -5q6 -7 6 -15t-6 -14q-35 -36 -89.5 -85t-111.5 -87t-99 -40v0zM47 873q-11 0 -18 11q-3 7 -0.5 15t9.5 12l74 37q7 3 15 0.5t12 -9.5q3 -8 0.5 -15.5t-9.5 -11.5l-74 -37q-4 -2 -9 -2v0z" />
    <glyph glyph-name="icircumflex" unicode="&#xee;" horiz-adv-x="258" 
d="M-28 429q-18 0 -31 9q-16 14 -18.5 34.5t1 40t7.5 30.5q22 74 93 201q4 7 12 9.5t15 -1.5q7 -5 9.5 -12.5t-1.5 -15.5q-19 -33 -33.5 -61.5t-25 -51.5t-17.5 -41t-11.5 -32.5t-7 -25t-3 -18t0 -12t1.5 -7t1.5 -4l0.5 -1.5l1.5 -0.5t4 -0.5t7.5 0.5t12 2.5t16.5 6.5
t22 11.5t28.5 18q82 56 186 161q6 6 14 6t15 -5q6 -7 6 -15t-6 -14q-35 -36 -89.5 -85t-111.5 -87t-99 -40v0zM123 868h-2q-8 1 -13 7t-5 15q1 10 2 22q-18 -15 -35 -31q-6 -6 -14 -6t-14 6q-6 7 -6 14.5t6 14.5q24 23 40 35.5t25 17t14 4t9 -1.5q12 -5 15 -18q1 -9 0.5 -22
t-1 -24t-1.5 -15q-1 -8 -6.5 -13t-13.5 -5v0z" />
    <glyph glyph-name="idieresis" unicode="&#xef;" horiz-adv-x="258" 
d="M-28 429q-18 0 -31 9q-16 14 -18.5 34.5t1 40t7.5 30.5q22 74 93 201q4 7 12 9.5t15 -1.5q7 -5 9.5 -12.5t-1.5 -15.5q-19 -33 -33.5 -61.5t-25 -51.5t-17.5 -41t-11.5 -32.5t-7 -25t-3 -18t0 -12t1.5 -7t1.5 -4l0.5 -1.5l1.5 -0.5t4 -0.5t7.5 0.5t12 2.5t16.5 6.5
t22 11.5t28.5 18q82 56 186 161q6 6 14 6t15 -5q6 -7 6 -15t-6 -14q-35 -36 -89.5 -85t-111.5 -87t-99 -40v0zM51 860v0v0q-11 0 -19 8t-8 20q0 11 8 19t19 8q12 0 20 -8t8 -19q0 -12 -8 -20t-20 -8zM129 859v0v0q-12 0 -20 8t-8 20q0 11 8 19t20 8q11 0 19 -8t8 -19
q0 -12 -8 -20t-19 -8z" />
    <glyph glyph-name="eth" unicode="&#xf0;" horiz-adv-x="416" 
d="M97 706q-9 -1 -18 -5q-72 -38 -142 -180q-19 -43 -20.5 -76.5t6.5 -39.5h1l1 1q1 0 3 1q4 2 12 8q68 57 216 251q-4 3 -6 7q-1 1 -8 9t-18.5 16t-26.5 8zM419 1033q92 139 111 194q7 21 8 34q-6 -6 -16 -19q-24 -33 -68 -114q-24 -44 -50 -95h15zM384 994
q-12 -23 -24 -47q17 24 32 47h-8zM440 993q-45 -67 -111 -159q-35 -49 -68 -94q-19 -42 -33 -75q-50 -126 -82.5 -253.5t-32.5 -183.5q1 -36 4 -42q6 -2 10 -9t2 -14.5t-10 -12.5q-4 -2 -10 -3q-6 0 -14 4q-22 10 -22 77q0 51 25.5 159t67.5 227q-135 -175 -200 -230
q-26 -20 -43 -19t-25 9q-25 22 -22 70t25 94q14 34 57.5 100t103.5 99q41 17 72.5 0.5t45.5 -39.5q23 30 46 62q51 113 113 235l-105 2q-8 0 -13.5 6t-5.5 14q0 9 6 14.5t14 5.5l124 -3q5 10 11 21q79 153 120 211q6 8 17 20.5t25 19.5t29 0q15 -9 17 -27.5t-2.5 -37
t-7.5 -27.5q-13 -38 -63 -121q-16 -26 -39 -61l95 -2q9 0 14.5 -6t5.5 -14q-1 -8 -6.5 -14t-13.5 -6h-1z" />
    <glyph glyph-name="ntilde" unicode="&#xf1;" horiz-adv-x="470" 
d="M-119 355q-4 0 -9 2q-7 4 -9.5 11t0.5 15l168 385q3 7 10.5 10t15.5 0t11 -10.5t-1 -15.5l-72 -166q36 50 66 78q36 34 59 47.5t37 15t22 -2.5q7 -3 15 -12t8 -30q0 -7 -1 -17q-2 -29 1 -72t23 -62q1 -1 4.5 -3t10 -3t17.5 2q33 9 68 31t64.5 47t47.5 43.5t19 19.5
q6 6 14 6.5t14 -5.5t6.5 -14t-5.5 -14q-3 -5 -36 -36.5t-82 -66.5t-101 -50q-24 -5 -40.5 -0.5t-25.5 12.5q-31 28 -36 78t-3 88v1q1 9 1 15q0 3 -1 4q-4 0 -21.5 -10t-51.5 -41q-25 -24 -57 -67.5t-62 -89.5t-49.5 -78.5t-21.5 -34.5q-7 -10 -17 -10v0zM113 876
q-19 0 -25 10q-8 9 -9.5 19.5t0.5 20t3 13.5q3 8 10.5 11.5t15.5 1.5q8 -3 11.5 -10.5t0.5 -15.5q-1 -4 -2 -9q15 5 35 13q69 30 94 15q12 -9 12 -23q0 -20 -3 -35q-4 -19 -22 -15t-17 17t1 20q-11 -2 -25 -7.5t-25 -9.5q-22 -8 -39 -13q-9 -3 -16 -3v0z" />
    <glyph glyph-name="ograve" unicode="&#xf2;" horiz-adv-x="256" 
d="M-53 370q-32 -1 -46 15q-26 28 -23 80t25 102q21 46 48 72.5t47 37.5t23 11q8 2 15 -1.5t10 -11.5t-0.5 -15t-11.5 -10q-2 0 -18 -9t-37.5 -30.5t-38.5 -59.5q-20 -46 -22 -85t11 -52q7 -6 18 -4t21 7q71 38 100 128q24 85 -9 150l-3 6q-4 8 -1.5 15.5t9.5 11.5t14.5 1.5
t12.5 -9.5q1 -2 3 -5q5 -10 20.5 -27.5t51.5 -30t77 8.5q8 5 15.5 3.5t12.5 -8.5q5 -8 3 -15.5t-9 -12.5q-56 -31 -96 -18t-52 20q5 -49 -10 -101q-34 -107 -121 -152q-23 -11 -39 -12zM116 877q-7 0 -13 5l-47 41q-7 6 -7.5 14t5.5 15q6 6 13.5 6.5t14.5 -5.5l47 -41
q7 -6 7.5 -14t-5.5 -14q-7 -7 -15 -7v0z" />
    <glyph glyph-name="oacute" unicode="&#xf3;" horiz-adv-x="256" 
d="M-53 370q-32 -1 -46 15q-26 28 -23 80t25 102q21 46 48 72.5t47 37.5t23 11q8 2 15 -1.5t10 -11.5t-0.5 -15t-11.5 -10q-2 0 -18 -9t-37.5 -30.5t-38.5 -59.5q-20 -46 -22 -85t11 -52q7 -6 18 -4t21 7q71 38 100 128q24 85 -9 150l-3 6q-4 8 -1.5 15.5t9.5 11.5t14.5 1.5
t12.5 -9.5q1 -2 3 -5q5 -10 20.5 -27.5t51.5 -30t77 8.5q8 5 15.5 3.5t12.5 -8.5q5 -8 3 -15.5t-9 -12.5q-56 -31 -96 -18t-52 20q5 -49 -10 -101q-34 -107 -121 -152q-23 -11 -39 -12zM67 873q-11 0 -18 11q-3 7 -0.5 15t9.5 12l74 37q7 3 15 0.5t12 -9.5q3 -8 0.5 -15.5
t-9.5 -11.5l-74 -37q-4 -2 -9 -2v0z" />
    <glyph glyph-name="ocircumflex" unicode="&#xf4;" horiz-adv-x="256" 
d="M-53 370q-32 -1 -46 15q-26 28 -23 80t25 102q21 46 48 72.5t47 37.5t23 11q8 2 15 -1.5t10 -11.5t-0.5 -15t-11.5 -10q-2 0 -18 -9t-37.5 -30.5t-38.5 -59.5q-20 -46 -22 -85t11 -52q7 -6 18 -4t21 7q71 38 100 128q24 85 -9 150l-3 6q-4 8 -1.5 15.5t9.5 11.5t14.5 1.5
t12.5 -9.5q1 -2 3 -5q5 -10 20.5 -27.5t51.5 -30t77 8.5q8 5 15.5 3.5t12.5 -8.5q5 -8 3 -15.5t-9 -12.5q-56 -31 -96 -18t-52 20q5 -49 -10 -101q-34 -107 -121 -152q-23 -11 -39 -12zM143 868h-2q-8 1 -13 7t-5 15q1 10 2 22q-18 -15 -35 -31q-6 -6 -14 -6t-14 6
q-6 7 -6 14.5t6 14.5q24 23 40 35.5t25 17t14 4t9 -1.5q12 -5 15 -18q1 -9 0.5 -22t-1 -24t-1.5 -15q-1 -8 -6.5 -13t-13.5 -5v0z" />
    <glyph glyph-name="otilde" unicode="&#xf5;" horiz-adv-x="256" 
d="M-53 370q-32 -1 -46 15q-26 28 -23 80t25 102q21 46 48 72.5t47 37.5t23 11q8 2 15 -1.5t10 -11.5t-0.5 -15t-11.5 -10q-2 0 -18 -9t-37.5 -30.5t-38.5 -59.5q-20 -46 -22 -85t11 -52q7 -6 18 -4t21 7q71 38 100 128q24 85 -9 150l-3 6q-4 8 -1.5 15.5t9.5 11.5t14.5 1.5
t12.5 -9.5q1 -2 3 -5q5 -10 20.5 -27.5t51.5 -30t77 8.5q8 5 15.5 3.5t12.5 -8.5q5 -8 3 -15.5t-9 -12.5q-56 -31 -96 -18t-52 20q5 -49 -10 -101q-34 -107 -121 -152q-23 -11 -39 -12zM63 876q-19 0 -25 10q-8 9 -9.5 19.5t0.5 20t3 13.5q3 8 10.5 11.5t15.5 1.5
q8 -3 11.5 -10.5t0.5 -15.5q-1 -4 -2 -9q15 5 35 13q69 30 94 15q12 -9 12 -23q0 -20 -3 -35q-4 -19 -22 -15t-17 17t1 20q-11 -2 -25 -7.5t-25 -9.5q-22 -8 -39 -13q-9 -3 -16 -3v0z" />
    <glyph glyph-name="odieresis" unicode="&#xf6;" horiz-adv-x="256" 
d="M-53 370q-32 -1 -46 15q-26 28 -23 80t25 102q21 46 48 72.5t47 37.5t23 11q8 2 15 -1.5t10 -11.5t-0.5 -15t-11.5 -10q-2 0 -18 -9t-37.5 -30.5t-38.5 -59.5q-20 -46 -22 -85t11 -52q7 -6 18 -4t21 7q71 38 100 128q24 85 -9 150l-3 6q-4 8 -1.5 15.5t9.5 11.5t14.5 1.5
t12.5 -9.5q1 -2 3 -5q5 -10 20.5 -27.5t51.5 -30t77 8.5q8 5 15.5 3.5t12.5 -8.5q5 -8 3 -15.5t-9 -12.5q-56 -31 -96 -18t-52 20q5 -49 -10 -101q-34 -107 -121 -152q-23 -11 -39 -12zM61 860v0v0q-11 0 -19 8t-8 20q0 11 8 19t19 8q12 0 20 -8t8 -19q0 -12 -8 -20t-20 -8z
M139 859v0v0q-12 0 -20 8t-8 20q0 11 8 19t20 8q11 0 19 -8t8 -19q0 -12 -8 -20t-19 -8z" />
    <glyph glyph-name="divide" unicode="&#xf7;" horiz-adv-x="436" 
d="M346 558v0v0l-326 6q-9 0 -14.5 6t-5.5 14q0 9 6 14.5t14 5.5l326 -6q9 -1 14.5 -6.5t5.5 -14.5q0 -8 -6 -13.5t-14 -5.5v0zM229 707q0 -12 -8 -20.5t-20 -8.5t-20.5 8.5t-8.5 20.5t8.5 20.5t20.5 8.5t20 -8.5t8 -20.5v0zM208 457q0 -12 -8.5 -20.5t-20.5 -8.5t-20.5 8.5
t-8.5 20.5t8.5 20.5t20.5 8.5t20.5 -8.5t8.5 -20.5v0z" />
    <glyph glyph-name="oslash" unicode="&#xf8;" horiz-adv-x="256" 
d="M-53 370v0q16 1 39 12q87 45 121 152q15 52 10 101q12 -7 52 -20t96 18q7 5 9 12.5t-3 15.5q-5 7 -12.5 8.5t-15.5 -3.5q-41 -21 -77 -8.5t-51.5 30t-20.5 27.5q-2 3 -3 5q-5 7 -12.5 9.5t-14.5 -1.5t-9.5 -11.5t1.5 -15.5l3 -6q33 -65 9 -150q-29 -90 -100 -128
q-10 -5 -21 -7t-18 4q-13 13 -11 52t22 85q17 38 38.5 59.5t37.5 30.5t18 9q8 3 11.5 10t0.5 15t-10 11.5t-15 1.5q-3 0 -23 -11t-47 -37.5t-48 -72.5q-22 -50 -25 -102t23 -80q14 -16 46 -15zM-124 339v0q8 1 14 9l253 378q5 7 3.5 15t-8.5 13q-7 4 -15 2.5t-13 -8.5
l-253 -378q-4 -7 -2.5 -14.5t8.5 -12.5q6 -4 13 -4z" />
    <glyph glyph-name="ugrave" unicode="&#xf9;" horiz-adv-x="447" 
d="M-36 424h-5q-20 3 -28 23q-11 38 3.5 92.5t34.5 100t27 57.5q4 7 11.5 9.5t15.5 -1.5q7 -4 9.5 -11.5t-1.5 -15.5q-25 -48 -47 -112t-16 -101q7 1 34 22t83 81q40 44 69 80t34 44q24 35 26 36q5 5 12 6t14 -3q6 -4 8 -11t-1 -14q-22 -46 -33.5 -104t12.5 -83
q23 -13 84.5 33.5t122.5 115.5q6 7 14 7.5t14 -5.5q7 -5 7.5 -13t-5.5 -15q-2 -3 -29.5 -32t-67.5 -64q-116 -100 -166 -58q-23 21 -27.5 53.5t1.5 68.5q-28 -34 -61 -71q-67 -72 -100.5 -93.5t-48.5 -21.5v0zM156 877q-7 0 -13 5l-47 41q-7 6 -7.5 14t5.5 15q6 6 13.5 6.5
t14.5 -5.5l47 -41q7 -6 7.5 -14t-5.5 -14q-7 -7 -15 -7v0z" />
    <glyph glyph-name="uacute" unicode="&#xfa;" horiz-adv-x="447" 
d="M-36 424h-5q-20 3 -28 23q-11 38 3.5 92.5t34.5 100t27 57.5q4 7 11.5 9.5t15.5 -1.5q7 -4 9.5 -11.5t-1.5 -15.5q-25 -48 -47 -112t-16 -101q7 1 34 22t83 81q40 44 69 80t34 44q24 35 26 36q5 5 12 6t14 -3q6 -4 8 -11t-1 -14q-22 -46 -33.5 -104t12.5 -83
q23 -13 84.5 33.5t122.5 115.5q6 7 14 7.5t14 -5.5q7 -5 7.5 -13t-5.5 -15q-2 -3 -29.5 -32t-67.5 -64q-116 -100 -166 -58q-23 21 -27.5 53.5t1.5 68.5q-28 -34 -61 -71q-67 -72 -100.5 -93.5t-48.5 -21.5v0zM117 873q-11 0 -18 11q-3 7 -0.5 15t9.5 12l74 37q7 3 15 0.5
t12 -9.5q3 -8 0.5 -15.5t-9.5 -11.5l-74 -37q-4 -2 -9 -2v0z" />
    <glyph glyph-name="ucircumflex" unicode="&#xfb;" horiz-adv-x="447" 
d="M-36 424h-5q-20 3 -28 23q-11 38 3.5 92.5t34.5 100t27 57.5q4 7 11.5 9.5t15.5 -1.5q7 -4 9.5 -11.5t-1.5 -15.5q-25 -48 -47 -112t-16 -101q7 1 34 22t83 81q40 44 69 80t34 44q24 35 26 36q5 5 12 6t14 -3q6 -4 8 -11t-1 -14q-22 -46 -33.5 -104t12.5 -83
q23 -13 84.5 33.5t122.5 115.5q6 7 14 7.5t14 -5.5q7 -5 7.5 -13t-5.5 -15q-2 -3 -29.5 -32t-67.5 -64q-116 -100 -166 -58q-23 21 -27.5 53.5t1.5 68.5q-28 -34 -61 -71q-67 -72 -100.5 -93.5t-48.5 -21.5v0zM183 868h-2q-8 1 -13 7t-5 15q1 10 2 22q-18 -15 -35 -31
q-6 -6 -14 -6t-14 6q-6 7 -6 14.5t6 14.5q24 23 40 35.5t25 17t14 4t9 -1.5q12 -5 15 -18q1 -9 0.5 -22t-1 -24t-1.5 -15q-1 -8 -6.5 -13t-13.5 -5v0z" />
    <glyph glyph-name="udieresis" unicode="&#xfc;" horiz-adv-x="447" 
d="M-36 424h-5q-20 3 -28 23q-11 38 3.5 92.5t34.5 100t27 57.5q4 7 11.5 9.5t15.5 -1.5q7 -4 9.5 -11.5t-1.5 -15.5q-25 -48 -47 -112t-16 -101q7 1 34 22t83 81q40 44 69 80t34 44q24 35 26 36q5 5 12 6t14 -3q6 -4 8 -11t-1 -14q-22 -46 -33.5 -104t12.5 -83
q23 -13 84.5 33.5t122.5 115.5q6 7 14 7.5t14 -5.5q7 -5 7.5 -13t-5.5 -15q-2 -3 -29.5 -32t-67.5 -64q-116 -100 -166 -58q-23 21 -27.5 53.5t1.5 68.5q-28 -34 -61 -71q-67 -72 -100.5 -93.5t-48.5 -21.5v0zM121 860v0v0q-11 0 -19 8t-8 20q0 11 8 19t19 8q12 0 20 -8
t8 -19q0 -12 -8 -20t-20 -8zM199 859v0v0q-12 0 -20 8t-8 20q0 11 8 19t20 8q11 0 19 -8t8 -19q0 -12 -8 -20t-19 -8z" />
    <glyph glyph-name="yacute" unicode="&#xfd;" horiz-adv-x="392" 
d="M-219 -165h-10q-38 7 -54 49q-17 46 4 121.5t93 158.5q155 174 321 312q14 33 28 64q-37 -46 -78 -82t-81 -46q-24 -6 -38 -0.5t-21 14.5q-12 11 -15 47t22 119q15 45 28 77t15 35q3 8 10.5 11t15.5 -1q8 -3 11 -10.5t-1 -15.5q-1 -2 -13.5 -33.5t-26.5 -74.5
q-12 -38 -16.5 -62.5t-4.5 -38.5t2 -20t4 -7q4 -5 18 -2q46 14 96.5 68.5t92.5 117t63 101.5q5 7 12 9.5t15 -1.5q7 -3 9.5 -10.5t-0.5 -14.5q-3 -8 -24 -58.5t-55 -128.5q78 64 127 100.5t51 38.5q7 5 15 3.5t13 -8.5t3.5 -14.5t-7.5 -12.5q-4 -3 -70.5 -53.5
t-166.5 -134.5q-67 -154 -140 -305t-122 -222q-41 -53 -72.5 -71.5t-52.5 -18.5v0zM96 389q-132 -116 -252 -251q-67 -79 -84.5 -144t-4.5 -96q7 -21 22 -23q5 -1 17 2.5t32 19.5t47 52q41 57 101.5 180t121.5 260v0zM137 873q-11 0 -18 11q-3 7 -0.5 15t9.5 12l74 37
q7 3 15 0.5t12 -9.5q3 -8 0.5 -15.5t-9.5 -11.5l-74 -37q-4 -2 -9 -2v0z" />
    <glyph glyph-name="thorn" unicode="&#xfe;" horiz-adv-x="389" 
d="M-248 81q-4 0 -8 1q-8 4 -11 11.5t0 15.5q6 12 15 36l1 1q54 133 116 263l212 482q3 7 10.5 10t15.5 0q8 -4 11 -11.5t-1 -15.5l-85 -195q54 65 105 76q16 3 36.5 -2.5t41.5 -28.5q23 -26 25 -80.5t-36 -111.5q-27 -38 -77 -69t-105 -37q-52 -5 -87 24l-30 -58l-131 -299
q-7 -12 -18 -12v0zM-50 487l1 -1q24 -24 64 -21q44 5 87 32t65 58q32 48 29.5 88.5t-14.5 54.5q-13 13 -24 16t-18 1q-25 -1 -71.5 -49.5t-118.5 -178.5v0z" />
    <glyph glyph-name="ydieresis" unicode="&#xff;" horiz-adv-x="392" 
d="M-219 -165h-10q-38 7 -54 49q-17 46 4 121.5t93 158.5q155 174 321 312q14 33 28 64q-37 -46 -78 -82t-81 -46q-24 -6 -38 -0.5t-21 14.5q-12 11 -15 47t22 119q15 45 28 77t15 35q3 8 10.5 11t15.5 -1q8 -3 11 -10.5t-1 -15.5q-1 -2 -13.5 -33.5t-26.5 -74.5
q-12 -38 -16.5 -62.5t-4.5 -38.5t2 -20t4 -7q4 -5 18 -2q46 14 96.5 68.5t92.5 117t63 101.5q5 7 12 9.5t15 -1.5q7 -3 9.5 -10.5t-0.5 -14.5q-3 -8 -24 -58.5t-55 -128.5q78 64 127 100.5t51 38.5q7 5 15 3.5t13 -8.5t3.5 -14.5t-7.5 -12.5q-4 -3 -70.5 -53.5
t-166.5 -134.5q-67 -154 -140 -305t-122 -222q-41 -53 -72.5 -71.5t-52.5 -18.5v0zM96 389q-132 -116 -252 -251q-67 -79 -84.5 -144t-4.5 -96q7 -21 22 -23q5 -1 17 2.5t32 19.5t47 52q41 57 101.5 180t121.5 260v0zM121 860v0v0q-11 0 -19 8t-8 20q0 11 8 19t19 8
q12 0 20 -8t8 -19q0 -12 -8 -20t-20 -8zM199 859v0v0q-12 0 -20 8t-8 20q0 11 8 19t20 8q11 0 19 -8t8 -19q0 -12 -8 -20t-19 -8z" />
    <glyph glyph-name="dotlessi" unicode="&#x131;" horiz-adv-x="514" 
d="M328 223q0 -173 100 -173h46v-50h-442v50h46q100 0 100 173v432q0 77 -111 77h-48v44q222 69 261 182h48v-735z" />
    <glyph glyph-name="circumflex" unicode="&#x2c6;" horiz-adv-x="1024" 
d="M221 1079l232 355h118l232 -355h-58l-233 216l-233 -216h-58z" />
    <glyph glyph-name="caron" unicode="&#x2c7;" horiz-adv-x="1024" 
d="M221 1434h58l233 -214l233 214h58l-232 -356h-118z" />
    <glyph glyph-name="uni02C9" unicode="&#x2c9;" horiz-adv-x="1024" 
d="M254 1195v125h516v-125h-516z" />
    <glyph glyph-name="breve" unicode="&#x2d8;" horiz-adv-x="1024" 
d="M219 1349h51q17 -73 75 -107t167 -34t166 33.5t74 107.5h51q-20 -133 -94 -201.5t-197 -68.5q-122 0 -197 69t-96 201z" />
    <glyph glyph-name="dotaccent" unicode="&#x2d9;" horiz-adv-x="1024" 
d="M422 1289l69 72q6 6 13 9t14 3q6 0 12.5 -3t12.5 -9l71 -76q5 -4 7 -10t2 -14q-1 -9 -3 -15t-8 -12l-71 -76q-12 -11 -16 -13.5t-7 -2.5q-10 0 -16.5 2.5t-10.5 8.5l-75 87q-4 4 -6 9.5t-2 13.5q0 6 3 12.5t11 13.5z" />
    <glyph glyph-name="ring" unicode="&#x2da;" horiz-adv-x="1024" 
d="M411 1257q0 -42 29 -71t71 -29t71 29t29 71q0 40 -29.5 69.5t-70.5 29.5t-70.5 -29.5t-29.5 -69.5zM335 1257q0 75 51 126t125 51q76 0 127.5 -51.5t51.5 -125.5q0 -75 -51.5 -126.5t-127.5 -51.5q-74 0 -125 51.5t-51 126.5z" />
    <glyph glyph-name="ogonek" unicode="&#x2db;" horiz-adv-x="1024" 
d="M640 0q-71 -62 -110.5 -119.5t-39.5 -112.5q0 -47 27 -75t73 -28q40 0 69.5 15.5t49.5 48.5l28 -16q-36 -63 -90.5 -97t-119.5 -34q-70 0 -114 35.5t-44 90.5q0 76 60.5 156.5t161.5 135.5h49z" />
    <glyph glyph-name="tilde" unicode="&#x2dc;" horiz-adv-x="1024" 
d="M808 1382q-20 -103 -68.5 -154t-126.5 -51h-4q-50 0 -113 23q-66 24 -114 24q-39 0 -60.5 -20.5t-33.5 -71.5h-54q19 106 68 158.5t129 52.5q46 -1 113 -24q64 -23 112 -23h4q36 0 58 20t36 66h54z" />
    <glyph glyph-name="hungarumlaut" unicode="&#x2dd;" horiz-adv-x="1024" 
d="M217 1079l144 273q24 44 45.5 63t46.5 19q28 0 48 -20t20 -47q0 -16 -10.5 -35t-30.5 -41l-205 -212h-58zM502 1079l144 273q24 44 45.5 63t46.5 19q28 0 48 -20t20 -47q0 -16 -10.5 -35t-30.5 -41l-205 -212h-58z" />
    <glyph glyph-name="endash" unicode="&#x2013;" horiz-adv-x="1108" 
d="M56 419v120h996v-120h-996z" />
    <glyph glyph-name="emdash" unicode="&#x2014;" horiz-adv-x="2048" 
d="M0 419v120h2048v-120h-2048z" />
    <glyph glyph-name="quoteleft" unicode="&#x2018;" horiz-adv-x="141" 
d="M51 1202q10 0 17 -11q4 -7 2 -14.5t-10 -12.5q-10 -6 -14 -19t-4.5 -25.5t1.5 -18.5q3 -7 1.5 -14.5t-8.5 -11.5q-7 -5 -15 -3t-13 9q-6 11 -6.5 31t4.5 37q9 36 35 51q5 2 10 2v0z" />
    <glyph glyph-name="quoteright" unicode="&#x2019;" horiz-adv-x="141" 
d="M21 1072q-10 0 -17 10q-4 8 -1.5 15.5t9.5 11.5q10 6 14 19t4.5 26t-1.5 18q-3 7 -1.5 14.5t8.5 12.5q7 4 15 2.5t13 -8.5q6 -11 6.5 -31t-3.5 -37q-10 -37 -36 -51q-5 -2 -10 -2v0z" />
    <glyph glyph-name="quotesinglbase" unicode="&#x201a;" horiz-adv-x="557" 
d="M238 281q44 0 88.5 -65.5t44.5 -151.5q0 -109 -71 -226.5t-139 -117.5v43q73 43 87 190q0 119 -129 161v42z" />
    <glyph glyph-name="quotedblleft" unicode="&#x201c;" horiz-adv-x="221" 
d="M131 1202q10 0 17 -11q4 -7 2 -14.5t-10 -12.5q-10 -6 -14 -19t-4.5 -25.5t1.5 -18.5q3 -7 1.5 -14.5t-8.5 -11.5q-7 -5 -15 -3t-13 9q-6 11 -6.5 31t4.5 37q9 36 35 51q5 2 10 2v0zM51 1202q10 0 17 -11q4 -7 2 -14.5t-10 -12.5q-10 -6 -14 -19t-4.5 -25.5t1.5 -18.5
q3 -7 1.5 -14.5t-8.5 -11.5q-7 -5 -15 -3t-13 9q-6 11 -6.5 31t4.5 37q9 36 35 51q5 2 10 2v0z" />
    <glyph glyph-name="quotedblright" unicode="&#x201d;" horiz-adv-x="221" 
d="M21 1072q-10 0 -17 10q-4 8 -1.5 15.5t9.5 11.5q10 6 14 19t4.5 26t-1.5 18q-3 7 -1.5 14.5t8.5 12.5q7 4 15 2.5t13 -8.5q6 -11 6.5 -31t-3.5 -37q-10 -37 -36 -51q-5 -2 -10 -2v0zM101 1072q-10 0 -17 10q-4 8 -1.5 15.5t9.5 11.5q10 6 14 19t4.5 26t-1.5 18
q-3 7 -1.5 14.5t8.5 12.5q7 4 15 2.5t13 -8.5q6 -11 6.5 -31t-3.5 -37q-10 -37 -36 -51q-5 -2 -10 -2v0z" />
    <glyph glyph-name="quotedblbase" unicode="&#x201e;" horiz-adv-x="910" 
d="M238 281q44 0 88.5 -65.5t44.5 -151.5q0 -109 -71 -226.5t-139 -117.5v43q73 43 87 190q0 119 -129 161v42zM591 281q44 0 88.5 -65.5t44.5 -151.5q0 -109 -71 -226.5t-139 -117.5v43q73 43 87 190q0 119 -129 161v42z" />
    <glyph glyph-name="dagger" unicode="&#x2020;" 
d="M486 1022q-8 97 -54 178q-57 101 -57 129q0 49 36 78.5t96 29.5q57 0 94.5 -27.5t37.5 -71.5q0 -32 -55 -137q-46 -85 -55 -179q96 8 177 54q101 57 129 57q49 0 79 -36t30 -96q0 -57 -27.5 -94.5t-72.5 -37.5q-32 0 -136 55q-85 46 -179 57q8 -176 110 -277
q-106 -460 -112 -974h-38q-6 514 -114 974q102 101 111 277q-96 -10 -178 -55q-101 -57 -129 -57q-49 0 -78.5 36t-29.5 96q0 57 27.5 94.5t71.5 37.5q32 0 137 -56q85 -46 179 -55z" />
    <glyph glyph-name="daggerdbl" unicode="&#x2021;" 
d="M528 186q94 11 179 57q104 55 136 55q45 0 72.5 -37.5t27.5 -94.5q0 -60 -30 -96t-79 -36q-28 0 -129 57q-81 46 -177 54q9 -94 55 -179q55 -105 55 -137q0 -44 -37.5 -71.5t-94.5 -27.5q-60 0 -96 29.5t-36 78.5q0 28 57 129q46 81 54 178q-94 -9 -179 -55
q-105 -56 -137 -56q-44 0 -71.5 37.5t-27.5 94.5q0 60 29.5 96t78.5 36q28 0 129 -57q82 -45 178 -55q-9 226 -111 398q102 171 111 397q-96 -10 -178 -55q-101 -57 -129 -57q-49 0 -78.5 36t-29.5 96q0 57 27.5 94.5t71.5 37.5q32 0 137 -56q85 -46 179 -55q-8 97 -54 178
q-57 101 -57 129q0 49 36 78.5t96 29.5q57 0 94.5 -27.5t37.5 -71.5q0 -32 -55 -137q-46 -85 -55 -179q96 8 177 54q101 57 129 57q49 0 79 -36t30 -96q0 -57 -27.5 -94.5t-72.5 -37.5q-32 0 -136 55q-85 46 -179 57q8 -226 110 -397q-102 -172 -110 -398z" />
    <glyph glyph-name="bullet" unicode="&#x2022;" horiz-adv-x="1024" 
d="M216 718q0 123 87 209t210 86q122 0 208.5 -86.5t86.5 -208.5t-87.5 -209.5t-209.5 -87.5q-123 0 -209 87t-86 210z" />
    <glyph glyph-name="ellipsis" unicode="&#x2026;" horiz-adv-x="2048" 
d="M145 167l82 84q15 14 29 14q13 0 31 -16l80 -86q12 -16 12 -29q0 -15 -14 -31l-80 -88q-20 -20 -29 -20q-16 0 -29 14l-88 101q-10 13 -10 26q0 15 16 31zM828 167l82 84q15 14 29 14q13 0 31 -16l80 -86q12 -16 12 -29q0 -15 -14 -31l-80 -88q-20 -20 -29 -20
q-16 0 -29 14l-88 101q-10 13 -10 26q0 15 16 31zM1511 167l82 84q15 14 29 14q13 0 31 -16l80 -86q12 -16 12 -29q0 -15 -14 -31l-80 -88q-20 -20 -29 -20q-16 0 -29 14l-88 101q-10 13 -10 26q0 15 16 31z" />
    <glyph glyph-name="guilsinglleft" unicode="&#x2039;" horiz-adv-x="631" 
d="M174 479l342 303h14v-37l-205 -266l205 -266v-37h-14z" />
    <glyph glyph-name="guilsinglright" unicode="&#x203a;" horiz-adv-x="631" 
d="M115 176h-14v37l205 266l-205 266v37h14l342 -303z" />
    <glyph glyph-name="fraction" unicode="&#x2044;" horiz-adv-x="342" 
d="M-342 -29l940 1461h84l-938 -1461h-86z" />
    <glyph glyph-name="fraction" unicode="&#x2215;" horiz-adv-x="342" 
d="M-342 -29l940 1461h84l-938 -1461h-86z" />
    <glyph glyph-name="franc" unicode="&#x20a3;" 
d="M247 357h-194v60h194v732q0 235 -103 235h-96v50h915l103 -231h-49q-59 182 -190 182l-316 -1q-102 0 -102 -235v-352h361q100 0 100 63v58h50v-342h-50v60q0 62 -100 62h-361v-281h194v-60h-194v-72q0 -235 102 -235h97v-50h-560v50h96q103 0 103 235v72z" />
    <glyph glyph-name="lira" unicode="&#x20a4;" horiz-adv-x="596" 
d="M246 763q11 36 23 75q48 161 95 242q40 64 88 68q20 1 35 -5t23.5 -13t9.5 -9q6 -6 5.5 -14t-6.5 -14q-7 -5 -15 -5t-13 6q-1 1 -5.5 4.5t-12.5 7t-17 2.5q-29 -3 -58 -49q-44 -77 -92 -235q-9 -31 -18 -60l168 3q8 0 14 -5.5t6 -14.5q0 -8 -5.5 -14t-13.5 -6l-181 -3
q-28 -99 -50 -180q-2 -10 -5 -19l152 2q8 0 14 -5.5t6 -13.5q0 -9 -5.5 -14.5t-14.5 -6.5l-163 -2q-18 -70 -47 -139q-31 -74 -72 -111q34 -4 82 -19q33 -9 73 -8t77 8t61.5 14t25.5 7q8 3 15.5 -1t9.5 -12q3 -8 -0.5 -15t-11.5 -10q-4 -1 -31.5 -8.5t-69 -15t-85.5 -7.5
q-40 0 -76 10q-64 19 -99 19t-36 -2h-4q-7 0 -12.5 4t-7.5 11q-2 11 3.5 17t11.5 9q12 8 39 23q58 36 112 226l-85 -1h-1q-8 0 -13.5 6t-6.5 14q1 9 6.5 14.5t13.5 5.5l98 1l8 29q20 77 46 169l-94 -2q-8 0 -14 5.5t-6 13.5q0 9 5.5 14.5t14.5 6.5z" />
    <glyph glyph-name="peseta" unicode="&#x20a7;" horiz-adv-x="2028" 
d="M409 1384v-662q3 -9 7 -17q41 -102 108 -153q57 -44 116 -44q10 0 19 1q68 8 127 75t87 177q22 87 22 179q0 24 -1 47q-7 116 -49.5 218.5t-108.5 144.5q-56 35 -112 35q-10 0 -21 -1h-194zM1496 908h-179v-685q0 -81 34 -119q28 -31 81 -37l-71 192l49 1
q55 -130 114 -174q57 -44 127 -44h7q92 0 151 52q59 53 59 136q0 102 -259 226q-101 52 -144 112t-43 145q0 121 73 194zM1039 910q-7 -101 -48 -194q-50 -114 -141 -177.5t-190 -63.5q-100 0 -191 64q-33 22 -60 51v-305q0 -235 102 -235h97v-50h-560v50h96q103 0 103 235
v864q0 235 -103 235h-96v50h618q92 -2 181 -62q91 -62 143 -177q50 -113 51 -237h10q216 0 216 355h50v-355h259q42 19 110 20h2q54 0 133.5 -13.5t79.5 -33.5v-159h-42q-4 66 -65.5 108t-133.5 42q-64 0 -102.5 -36.5t-38.5 -96.5q0 -108 235 -220q122 -55 167.5 -117.5
t45.5 -153.5q0 -140 -83 -231q-102 -84 -228 -86q-58 0 -105 11q-28 6 -56 6q-18 0 -36 -3q-28 -5 -59 -5q-124 0 -173.5 57t-57.5 176h-1v687h-129z" />
    <glyph glyph-name="Euro" unicode="&#x20ac;" horiz-adv-x="673" 
d="M240 168v0q77 0 188 86q7 5 8 13t-4 15t-13 8t-15 -4q-51 -40 -107.5 -65t-97.5 0q-81 64 -63 295q11 120 49 242.5t98 217t135 132.5q30 13 56.5 10t47 -13.5t32.5 -21t14 -12.5q6 -6 14 -6.5t14 5.5t6.5 14t-5.5 14q-2 3 -17.5 16t-42.5 27t-61.5 17.5t-74.5 -14.5
q-85 -42 -149.5 -143t-104.5 -229t-51 -253q-20 -255 80 -331q28 -20 64 -20zM355 764v0q9 0 14.5 6t5.5 14t-5.5 14t-13.5 6l-285 4q-8 -1 -13.5 -6.5t-6.5 -13.5q0 -9 5.5 -14.5t14.5 -5.5l284 -4v0zM20 531v0v0l294 6q9 1 14.5 6.5t5.5 14.5q-1 8 -6.5 13.5t-13.5 5.5h-1
l-293 -6q-9 0 -14.5 -6t-5.5 -15q0 -8 6 -13.5t14 -5.5z" />
    <glyph glyph-name="uni2116" unicode="&#x2116;" horiz-adv-x="2271" 
 />
    <glyph glyph-name="trademark" unicode="&#x2122;" horiz-adv-x="1497" 
 />
    <glyph glyph-name="partialdiff" unicode="&#x2202;" 
d="M232 537q0 -41 5 -79q14 -122 61.5 -230t118.5 -165q64 -53 128 -53q6 0 13 1q70 5 127.5 70.5t80.5 179.5q16 73 16 149q0 42 -5 85q-14 122 -62.5 231.5t-119.5 165.5q-65 50 -128 50h-11q-68 -5 -126 -69.5t-82 -178.5q-16 -84 -16 -157zM937 477q0 -132 -56.5 -251
t-159 -185t-214.5 -66t-214.5 66t-159 185t-56.5 251q0 131 58 251t161 185t211 65q109 0 212 -65q29 -18 54 -41q-84 235 -233.5 377t-326.5 155v55q306 0 515 -285t209 -697z" />
    <glyph glyph-name="Delta" unicode="&#x2206;" horiz-adv-x="1081" 
d="M514 1195l-406 -1072h801zM547 1434l526 -1434h-1067z" />
    <glyph glyph-name="product" unicode="&#x220f;" horiz-adv-x="1515" 
d="M511 1384q-102 0 -102 -235v-1281q0 -235 102 -235h97v-51h-560v51h96q103 0 103 235v1281q0 235 -103 235h-96v50h1419v-50h-97q-102 0 -102 -235v-1281q0 -235 102 -235h97v-50h-560v50h96q103 0 103 235v1281q0 235 -103 235h-492z" />
    <glyph glyph-name="summation" unicode="&#x2211;" horiz-adv-x="1206" 
d="M1059 548l-788 -914h635q130 0 189 182h49l-103 -232h-921v50q62 0 106 53l663 781l-663 859q-44 57 -106 57v50h921l103 -232h-49q-59 182 -189 182h-485z" />
    <glyph glyph-name="minus" unicode="&#x2212;" 
d="M87 647v140h839l1 -1v-139h-840z" />
    <glyph glyph-name="radical" unicode="&#x221a;" 
d="M181 0l-164 359l74 35l85 -185l728 1470h150v-60h-72z" />
    <glyph glyph-name="infinity" unicode="&#x221e;" 
d="M439 755q-15 103 -74 133q-46 22 -84 22q-12 0 -23 -2q-49 -10 -92.5 -44.5t-65.5 -84.5q-20 -46 -20 -90v-8q2 -48 27.5 -89t71.5 -58q29 -11 61 -11q16 0 33 3q47 10 90.5 43.5t75.5 185.5zM466 687q12 -96 94 -153q69 -48 123 -48q11 0 21 2q62 12 117.5 52t84.5 101
q26 54 26 108v11q-2 60 -35.5 108.5t-91.5 68.5q-37 13 -76 13q-22 0 -44 -4q-67 -9 -127 -62t-92 -197zM450 827q9 35 21 69q34 88 95 137t128 49t128 -48t95 -135t34 -182t-34 -182t-95 -135t-128 -48t-128 49t-95 136q-12 35 -21 70q-5 -21 -12 -41q-27 -73 -74 -113
t-99 -40t-100 41t-73.5 113.5t-25.5 149.5q0 76 25.5 149t73.5 114t100 41t99 -40t74 -112q7 -21 12 -42z" />
    <glyph glyph-name="integral" unicode="&#x222b;" horiz-adv-x="665" 
d="M-12 -281q-60 0 -60 29v159h36q1 -43 34.5 -64.5t63.5 -21.5h1q82 0 115 162q32 162 40 316l70 734l8 62q27 238 135 429.5t234 191.5q60 0 60 -29v-159h-36q-1 43 -35 64.5t-63 21.5q-71 0 -116 -155.5t-49 -363.5l-73 -767q-20 -231 -130.5 -420t-234.5 -189z" />
    <glyph glyph-name="approxequal" unicode="&#x2248;" 
d="M923 1053v-156q-63 -72 -122 -97.5t-116 -25.5q-60 0 -177.5 48.5t-176.5 48.5q-51 0 -107.5 -28t-129.5 -112v156q64 73 123 99t114 26q64 0 181.5 -49.5t172.5 -49.5q52 0 108.5 28t129.5 112zM923 705v-156q-63 -72 -122 -97.5t-116 -25.5q-60 0 -177.5 48.5
t-176.5 48.5q-51 0 -107.5 -28t-129.5 -112v156q64 73 123 99t114 26q64 0 181.5 -49.5t172.5 -49.5q52 0 108.5 28t129.5 112z" />
    <glyph glyph-name="lessequal" unicode="&#x2264;" 
d="M927 1074l-625 -359l625 -355v-167l-840 481v83l840 484v-167zM87 1v140h839l1 -1v-139h-840z" />
    <glyph glyph-name="greaterequal" unicode="&#x2265;" 
d="M87 1241l840 -484v-83l-840 -481v167l625 355l-625 359v167zM87 2v140h839l1 -1v-139h-840z" />
    <glyph glyph-name="r.salt" unicode="&#xf120;" horiz-adv-x="349" 
d="M-3 243q-13 0 -24 7q-23 19 -20 57.5t17 77.5t24 59q40 74 34 125q-6 25 -22 44q-8 11 -15 23q-2 3 -3 7q-8 15 -11 35q-3 47 20 80.5t49 46.5q34 17 54 1q7 -6 10.5 -19t-4.5 -37q-11 -27 -34 -56.5t-40 -47.5q3 -4 6 -9q1 0 1 -1q19 -22 28 -60q6 -35 -5 -70.5
t-32 -78.5q-30 -68 -35 -103.5t1 -39.5q1 -1 5.5 0t14.5 6.5t25 18.5t37 36q54 56 112.5 130.5t100 131t44.5 60.5q5 7 12.5 8t14.5 -3q7 -6 8.5 -13.5t-3.5 -14.5q-5 -8 -47 -65t-100.5 -130.5t-112.5 -131.5q-70 -74 -110 -74v0zM71 773q-10 -4 -27 -19q-8 -8 -17.5 -24.5
t-10.5 -40.5q16 18 31.5 38.5t21.5 35.5q2 6 2 10v0z" />
    </font>
</defs>
</svg>
